Поиск

1959 Mongo Santamaria - Mongo (2015) {Trunk} [24-44,1]

1959 Mongo Santamaria - Mongo (2015) {Trunk} [24-44,1]
Издатель (лейбл):
Номер по каталогу:
3291
Носитель:
WEB
Формат:
PCM
Тип рипа:
tracks+.cue
Контейнер:
APE (*.ape)
Количество каналов:
2.0
Разрядность/ЧД:
24/44,1
Битрейт аудио:
lossless
Время звучания:
00:41:27
Наличие сканов:
web
Наличие водяных знаков:
нет
Страна-производитель диска (релиза):
USA
Релизёр (источник):
M0p94ok
Треклист:

01 - Afro Blue  3:58
02 - Che-Che-Re-Que-Che-Che  1:50 
03 - Rezo  2:13 
04 - Ayenye  2:40 
05 - Onyaye  3:30 
06 - Bata  2:34 
07 - Meta Rumba  3:37 
08 - Chano Pozo  2:40 
09 - Los Conguitos  2:09 
10 - Monte Adento  3:34 
11 - Imaribayo  2:07 
12 - Mazacote  10:38 

Лог проверки качества
foobar2000 1.3.16 / Dynamic Range Meter 1.1.1
log date: 2019-03-26 23:42:56

--------------------------------------------------------------------------------
Analyzed: Mongo Santamaria / Mongo
--------------------------------------------------------------------------------

DR         Peak         RMS     Duration Track
--------------------------------------------------------------------------------
DR14      -4.11 dB   -20.31 dB      3:58 01-Afro Blue
DR11      -5.73 dB   -20.48 dB      1:50 02-Che-Che-Re-Que-Che-Che
DR15      -6.71 dB   -24.74 dB      2:13 03-Rezo
DR14      -4.99 dB   -21.02 dB      2:40 04-Ayenye
DR13      -7.87 dB   -24.41 dB      3:30 05-Onyaye
DR13      -5.87 dB   -21.79 dB      2:34 06-Bata
DR13      -5.24 dB   -20.17 dB      3:37 07-Meta Rumba
DR12      -7.40 dB   -23.22 dB      2:40 08-Chano Pozo
DR14      -7.30 dB   -24.84 dB      2:09 09-Los Conguitos
DR13      -5.76 dB   -22.15 dB      3:34 10-Monte Adento
DR12      -6.30 dB   -20.45 dB      2:07 11-Imaribayo
DR13      -6.95 dB   -23.38 dB     10:38 12-Mazacote
--------------------------------------------------------------------------------

Number of tracks:  12
Official DR value: DR13

Samplerate:        44100 Hz
Channels:          2
Bits per sample:   24
Bitrate:           1311 kbps
Codec:             FLAC
================================================================================
Приватный:
Нет (DHT включён)
Размер:
394.35 Мб (413,506,926 байт) » файлов: 14
Участники:
1 раздают, 0 качают (1 участников всего)
Внешние участники:
--- [ Обновить ]
No seeders - write personal message to M0p94ok. Нет сидеров - пишите в личку M0p94ok.
12:52
173
Нет комментариев. Ваш будет первым!