Поиск

1962 Dave Pike - Pike's Peak (2019) {RevOla} [24-44,1]

1962 Dave Pike - Pike's Peak (2019) {RevOla} [24-44,1]
Дата переиздания диска:
9 мая 2019
Издатель (лейбл):
Битрейт аудио:
lossless

Треклист:

01 - Why Not? 06:46
02 - In A Sentimental Mood 06:32
03 - Vierd Blues 05:59
04 - Besame Mucho 06:54
05 - Wild Is The Wind 09:31

Доп. инфо:

Формат записи/Источник записи: [TR24][OF]
Издание: Remastered
Год издания/переиздания диска: 1961/2019
Продолжительность: 00:35:42
Наличие сканов в содержимом раздачи: Нет

Контейнер: FLAC (*.flac)
Тип рипа: tracks
Разрядность: 24/44,1
Количество каналов: 2.0

Источник (релизер): Qobuz

Лог проверки качества
foobar2000 1.3.16 / Dynamic Range Meter 1.1.1
log date: 2019-05-12 15:25:00

--------------------------------------------------------------------------------
Analyzed: Dave Pike / Pike's Peak
--------------------------------------------------------------------------------

DR         Peak         RMS     Duration Track
--------------------------------------------------------------------------------
DR10      -0.64 dB   -14.38 dB      6:47 01-Why Not?
DR11      -1.12 dB   -15.14 dB      6:32 02-In A Sentimental Mood
DR11       0.00 dB   -14.31 dB      5:59 03-Vierd Blues
DR10      -1.05 dB   -13.99 dB      6:55 04-Besame Mucho
DR10      -1.40 dB   -16.11 dB      9:31 05-Wild Is The Wind
--------------------------------------------------------------------------------

Number of tracks:  5
Official DR value: DR10

Samplerate:        44100 Hz
Channels:          2
Bits per sample:   24
Bitrate:           1361 kbps
Codec:             FLAC
================================================================================
Приватный:
Нет (DHT включён)
Размер:
385.44 Мб (404,159,474 байт) » файлов: 10
Участники:
0 раздают, 0 качают (0 участников всего)
Внешние участники:
5 раздают, 2 качают (7 участников всего) [ Обновить ]
No seeders - write personal message to M0p94ok. Any questions - support@pro-jazz.com.
Нет сидеров - пишите в личку M0p94ok. Есть вопросы - support@pro-jazz.com
12:04
183
Нет комментариев. Ваш будет первым!