Поиск

2012 Jens Thomas - Speed of Grace (A Tribute to AC-DC) {ACT Music 9509-2} [24-88,2]

2012 Jens Thomas - Speed of Grace (A Tribute to AC-DC) {ACT Music 9509-2} [24-88,2]
Стили:
Дата записи диска:
28 февраля и 1 марта 2011
Место записи:
Hansa Tonstudios, Kreuzberg, Berlin, Germany
Дата издания диска:
27 января 2012
Издатель (лейбл):
Номер по каталогу:
ACT 9509-2
Носитель:
WEB
Формат:
PCM
Тип рипа:
tracks+.cue
Контейнер:
APE (*.ape)
Количество каналов:
2.0
Разрядность/ЧД:
24/88,2
Битрейт аудио:
lossless
Время звучания:
00:52:56
Наличие сканов:
web
Наличие водяных знаков:
нет
Страна-производитель диска (релиза):
Germany
Релизёр (источник):
M0p94ok

Треклист:

01. Highway to Hell  05:49
02. Live Wire  05:12
03. T.n.t.  04:19
04. It's a Long Way to the Top  03:55
05. The Jack  05:17
06. Night Prowler  04:00
07. Hells Bells  02:51
08. Connected  03:58
09. If You Want Blood  05:31
10. Rock 'n' Roll Singer  02:04
11. Keep It Down Boy  04:40
12. Touch Too Much  02:53
13. You Shook Me All Night Long  01:54

Лог проверки качества
foobar2000 1.6.2 / Dynamic Range Meter 1.1.1
log date: 2021-01-14 20:26:04

--------------------------------------------------------------------------------
Analyzed: Jens Thomas / Speed of Grace (A Tribute to Ac / Dc)
--------------------------------------------------------------------------------

DR         Peak         RMS     Duration Track
--------------------------------------------------------------------------------
DR9       -0.10 dB   -13.71 dB      5:49 01-Highway to Hell
DR10      -1.20 dB   -15.19 dB      5:12 02-Live Wire
DR12      -0.10 dB   -16.50 dB      4:19 03-T.n.t.
DR11      -0.10 dB   -15.03 dB      3:55 04-It's a Long Way to the Top
DR11      -0.10 dB   -15.39 dB      5:18 05-The Jack
DR8       -0.30 dB   -10.63 dB      4:01 06-Night Prowler
DR10      -0.10 dB   -15.92 dB      2:51 07-Hells Bells
DR10      -1.50 dB   -14.90 dB      3:58 08-Connected
DR10      -1.10 dB   -14.19 dB      5:32 09-If You Want Blood
DR9       -4.01 dB   -15.66 dB      2:05 10-Rock 'n' Roll Singer
DR10      -0.93 dB   -14.49 dB      4:40 11-Keep It Down Boy
DR8       -0.10 dB   -12.21 dB      2:53 12-Touch Too Much
DR8       -0.10 dB   -12.04 dB      1:55 13-You Shook Me All Night Long
--------------------------------------------------------------------------------

Number of tracks:  13
Official DR value: DR10

Samplerate:        88200 Hz
Channels:          2
Bits per sample:   24
Bitrate:           2800 kbps
Codec:             FLAC
================================================================================
Приватный:
Нет (DHT включён)
Размер:
1.03 Гб (1,110,619,439 байт) » файлов: 15
Участники:
4 раздают, 0 качают (4 участников всего)
Внешние участники:
--- [ Обновить ]
Скорость:
0/c 129.00 байт/c
No seeders - write personal message to M0p94ok. Нет сидеров - пишите в личку M0p94ok.
21:42
139
Нет комментариев. Ваш будет первым!