Поиск

2020 Stefano Tamborrino – Seacup {Tuk Music} [24-96]

2020 Stefano Tamborrino – Seacup {Tuk Music} [24-96]
Дата издания диска:
20 ноября 2020
Битрейт аудио:
lossless
Лог проверки качества
foobar2000 1.6.2 / Dynamic Range Meter 1.1.1
log date: 2020-11-21 11:53:58

––––––––––––––––––––––––––––––––––––––––
Analyzed: Stefano Tamborrino / Seacup
––––––––––––––––––––––––––––––––––––––––

DR Peak RMS Duration Track
––––––––––––––––––––––––––––––––––––––––
DR9 -0.32 dB -13.65 dB 3:16 01-Coda
DR8 -0.32 dB -11.82 dB 4:19 02-Escher
DR9 -0.32 dB -12.42 dB 5:21 03-Purple Whales
DR9 -0.32 dB -14.71 dB 13:54 04-Olifante / The Kinzelman
DR8 -0.32 dB -10.69 dB 6:14 05-Noli Me Tangere
DR6 -0.32 dB -9.16 dB 5:07 06-Bird Vertigo
DR9 -0.32 dB -11.35 dB 4:27 07-Jakarta
DR10 -0.32 dB -13.42 dB 3:36 08-Arcadia
DR9 -0.33 dB -13.05 dB 3:51 09-Gamelan
DR8 -0.32 dB -11.27 dB 9:03 10-Almost Jesus
––––––––––––––––––––––––––––––––––––––––

Number of tracks: 10
Official DR value: DR9

Samplerate: 96000 Hz
Channels: 2
Bits per sample: 24
Bitrate: 3010 kbps
Codec: FLAC
================================================================================
No seeders - write personal message to M0p94ok. Any questions - support@pro-jazz.com.
Нет сидеров - пишите в личку M0p94ok. Есть вопросы - support@pro-jazz.com
17:14
262
Нет комментариев. Ваш будет первым!