Поиск

1965 Kitty White with Art Simmons Orchestra - Happiness Is a Thing Called Joe (2020) {Sunnyside} [24-44,1]

1965 Kitty White with Art Simmons Orchestra - Happiness Is a Thing Called Joe (2020) {Sunnyside} [24-44,1]
Стили:
Издатель (лейбл):
Битрейт аудио:
lossless

Треклист:

01 - Visit Me 01:59
02 - Summer In The City 02:51
03 - My Kind of Guy 02:06
04 - Happiness Is a Thing Called Joe 03:22
05 - So Many Beautiful Men (So Little Time) 02:10
06 - Do It Again 01:41
07 - Call Me Darling (Call Me Sweetheart, Call Me Dear) 02:02
08 - Disenchanted Lady 02:36
09 - Would I Love You (Love You, Love You) 02:44
10 - Bossa Nova All The Way 01:57
11 - Say It Isn't So 02:16
12 - Just In Time 01:49
13 - Mood Indigo 03:04
14 - Honeysuckle Rose 02:59
15 - So Many Beautiful Men (So Little Time) 02:17
16 - My Love Is A Wanderer 02:59

Доп. инфо:

Формат записи/Источник записи: [TR24][OF]
Издание: Remastered
Год издания/переиздания диска: 1965/2020
Продолжительность: 00:38:52
Наличие сканов в содержимом раздачи: Нет

Контейнер: FLAC (*.flac)
Тип рипа: tracks
Разрядность: 24/44,1
Количество каналов: 2.0

Источник (релизер): Bandcamp

Лог проверки качества
foobar2000 1.4.3 / Dynamic Range Meter 1.1.1
log date: 2020-11-20 21:29:06

--------------------------------------------------------------------------------
Analyzed: Kitty White / Happiness Is a Thing Called Joe
--------------------------------------------------------------------------------

DR         Peak         RMS     Duration Track
--------------------------------------------------------------------------------
DR11      -1.61 dB   -15.32 dB      2:00 01-Visit Me
DR12      -0.50 dB   -17.17 dB      2:51 02-Summer in the City
DR12      -0.83 dB   -16.44 dB      2:07 03-My Kind of Guy
DR10      -3.25 dB   -18.14 dB      3:23 04-Happiness Is a Thing Called Joe
DR12      -0.70 dB   -16.56 dB      2:11 05-So Many Beautiful Men (So Little Time)
DR11      -1.52 dB   -16.26 dB      1:41 06-Do It Again
DR11      -6.02 dB   -19.93 dB      2:02 07-Call Me Darling (Call Me Sweetheart, Call Me Dear)
DR10      -2.74 dB   -15.77 dB      2:36 08-Disenchanted Lady
DR12      -3.36 dB   -18.06 dB      2:44 09-Would I Love You (Love You, Love You)
DR13      -1.55 dB   -18.38 dB      1:57 10-Bossa Nova All the Way
DR12      -3.65 dB   -19.17 dB      2:16 11-Say It Isn't So
DR12      -1.74 dB   -17.36 dB      1:49 12-Just in Time
DR11      -2.36 dB   -16.66 dB      3:04 13-Mood Indigo
DR9       -3.76 dB   -15.38 dB      2:59 14-Honeysuckle Rose (Bonus Track)
DR10      -5.25 dB   -18.37 dB      2:17 15-So Many Beautiful Men (So Little Time) (Bonus Track)
DR10      -3.74 dB   -17.81 dB      3:00 16-My Love Is a Wanderer (Bonus Track)
--------------------------------------------------------------------------------

Number of tracks:  16
Official DR value: DR11

Samplerate:        44100 Hz
Channels:          2
Bits per sample:   24
Bitrate:           1170 kbps
Codec:             FLAC
================================================================================
Приватный:
Нет (DHT включён)
Размер:
392.02 Мб (411,063,257 байт) » файлов: 21
Участники:
0 раздают, 0 качают (0 участников всего)
Внешние участники:
5 раздают, 1 качают (6 участников всего) [ Обновить ]
For power users only: no seeders - write to support@pro-jazz.com. Для power user: нет сидеров - пишите на support@pro-jazz.com.
02:19
124
Нет комментариев. Ваш будет первым!