Поиск

2020 VA - The Hague Songbook Exchange {Challenge} [24-44,1]

2020 VA - The Hague Songbook Exchange {Challenge} [24-44,1]
Дата издания диска:
20 ноября 2020
Издатель (лейбл):
Битрейт аудио:
lossless

Треклист:

01. Wolfert Brederode & Joost Lijbaart - Remedy (5:58)
02. SWART - Sacharine (7:21)
03. Ben van den Dungen Quartet - Come Black Current (7:53)
04. Juraj Stanik - Rise & Fall (2:42)
05. Knimes Acoustic Group - Optimism (6:55)
06. Rembrandt Frerichs & Ties Mellema - Soft Reset (4:59)
07. Matchless - Drone Duet (3:50)
08. Madhara - Self Entiltled Man (4:34)
09. John Ruocco - Recluse (4:59)
10. Ellister van der Molen & Rob Wijnen - Den Haag (7:31)
11. Generate - Common Fields (4:42)
12. Foresense - Angry Woods (5:23)
13. Olaf Wempe - Stay on It (4:29)
14. Marric - I Sing This Song for You (4:08)
15. Stekkerdoos - D.C. (5:30)
16. Alkaloid - Ten of Hearts (4:06)
17. Adrian Newgent - Koot & Bie (5:14)
18. Zoe Reddy - Silenced (4:37)
19. Deadcrow - Waltz 4 (3:49)
20. Sciant Lentement - Toi Toi Moi (4:46)

Доп. инфо:

Формат записи/Источник записи: [TR24][OF]
Наличие водяных знаков: Нет
Год издания/переиздания диска: 2020
Продолжительность: 01:43:26
Наличие сканов в содержимом раздачи: Буклет PDF

Контейнер: FLAC (*.flac)
Тип рипа: tracks
Разрядность: 24/44,1
Формат: PCM
Количество каналов: 2.0

Источник (релизер): qobuz

Лог проверки качества
foobar2000 1.6.2 / Dynamic Range Meter 1.1.1
log date: 2020-11-30 02:50:45

--------------------------------------------------------------------------------
Analyzed: Adrian Newgent / The Hague Songbook Exchange (1)
          Alkaloid / The Hague Songbook Exchange (2)
          Ben van den Dungen Quartet / The Hague Songbook Exchange (3)
          Deadcrow / The Hague Songbook Exchange (4)
          Ellister van der Molen & Rob Wijnen / The Hague Songbook Exchange (5)
          Foresense / The Hague Songbook Exchange (6)
          Generate / The Hague Songbook Exchange (7)
          John Ruocco / The Hague Songbook Exchange (8)
          Juraj Stanik / The Hague Songbook Exchange (9)
          Knimes Acoustic Group / The Hague Songbook Exchange (10)
          Madhara / The Hague Songbook Exchange (11)
          Marric / The Hague Songbook Exchange (12)
          Matchless / The Hague Songbook Exchange (13)
          Olaf Wempe / The Hague Songbook Exchange (14)
          Rembrandt Frerichs & Ties Mellema / The Hague Songbook Exchange (15)
          Sciant Lentement / The Hague Songbook Exchange (16)
          Stekkerdoos / The Hague Songbook Exchange (17)
          SWART / The Hague Songbook Exchange (18)
          Wolfert Brederode & Joost Lijbaart / The Hague Songbook Exchange (19)
          Zoe Reddy / The Hague Songbook Exchange (20)
--------------------------------------------------------------------------------

DR         Peak         RMS     Duration Track
--------------------------------------------------------------------------------
DR7       -1.00 dB   -10.23 dB      5:14 17-Koot & Bie
DR5       -1.00 dB    -9.01 dB      4:06 16-Ten of Hearts
DR11      -1.00 dB   -13.52 dB      7:53 03-Come Black Current
DR6       -1.00 dB    -9.78 dB      3:49 19-Waltz 4
DR12      -1.00 dB   -15.49 dB      7:31 10-Den Haag
DR6       -1.00 dB    -9.10 dB      5:23 12-Angry Woods
DR5       -1.00 dB    -9.02 dB      4:42 11-Common Fields
DR11      -1.00 dB   -15.17 dB      4:59 09-Recluse
DR15      -3.96 dB   -23.82 dB      2:42 04-Rise & Fall
DR12      -1.00 dB   -14.65 dB      6:55 05-Optimism
DR11      -1.00 dB   -14.40 dB      4:34 08-Self Entiltled Man
DR4       -1.00 dB    -7.89 dB      4:08 14-I Sing This Song for You
DR10      -1.00 dB   -12.62 dB      3:50 07-Drone Duet
DR5       -1.00 dB    -8.88 dB      4:29 13-Stay on It
DR10      -2.44 dB   -18.40 dB      4:59 06-Soft Reset
DR6       -1.00 dB    -9.41 dB      4:46 20-Toi Toi Moi
DR5       -1.00 dB    -9.88 dB      5:30 15-D.C.
DR12      -1.00 dB   -15.71 dB      7:21 02-Sacharine
DR17      -1.00 dB   -22.67 dB      5:58 01-Remedy
DR7       -1.00 dB   -10.26 dB      4:37 18-Silenced
--------------------------------------------------------------------------------

Number of tracks:  20
Official DR value: DR9

Samplerate:        44100 Hz
Channels:          2
Bits per sample:   24
Bitrate:           1527 kbps
Codec:             FLAC
================================================================================
Приватный:
Нет (DHT включён)
Размер:
1.06 Гб (1,142,469,725 байт) » файлов: 25
Участники:
0 раздают, 0 качают (0 участников всего)
Внешние участники:
9 раздают, 3 качают (12 участников всего) [ Обновить ]
No seeders - write personal message to M0p94ok. Нет сидеров - пишите в личку M0p94ok.
01:46
140
Нет комментариев. Ваш будет первым!