Поиск

2021 Cory Weeds - O Sole Mio! {Cellar Live} [24-88.2]

2021 Cory Weeds - O Sole Mio! {Cellar Live} [24-88.2]
Стили:
Дата записи диска:
6 октября 2019
Место записи:
Armoury Studios
Дата издания диска:
15 января 2021
Носитель:
WEB
Формат:
PCM
Тип рипа:
tracks
Контейнер:
FLAC (*.flac)
Количество каналов:
2.0
Разрядность/ЧД:
24/88,2
Битрейт аудио:
lossless
Время звучания:
01:00:35
Наличие сканов:
только обложка
Страна-производитель диска (релиза):
USA
Релизёр (источник):
M0p94ok
Лог проверки качества
foobar2000 1.6.2 / Dynamic Range Meter 1.1.1
log date: 2021-05-20 20:54:00

--------------------------------------------------------------------------------
Analyzed: Cory Weeds / O Sole Mio!
--------------------------------------------------------------------------------

DR         Peak         RMS     Duration Track
--------------------------------------------------------------------------------
DR10      -1.00 dB   -12.72 dB      7:14 01-O Sole Mio
DR11      -1.00 dB   -13.31 dB      5:12 02-Mr. Lucky
DR10      -1.00 dB   -13.20 dB      8:10 03-Speak Softly Love (Theme from "The Godfather")
DR10      -1.00 dB   -12.87 dB      5:56 04-On The Stairs
DR14      -1.00 dB   -18.12 dB      7:23 05-Estate
DR11      -1.00 dB   -14.32 dB      6:11 06-Chick's Tune
DR10      -1.00 dB   -13.19 dB      8:07 07-Torna A Surriento
DR12      -1.00 dB   -14.69 dB      6:03 08-Moody Blues
DR10      -1.00 dB   -12.96 dB      6:23 09-Capricci di Camere
--------------------------------------------------------------------------------

Number of tracks:  9
Official DR value: DR11

Samplerate:        88200 Hz
Channels:          2
Bits per sample:   24
Bitrate:           2701 kbps
Codec:             FLAC
================================================================================
No seeders - write personal message to M0p94ok. Any questions - support@pro-jazz.com.
Нет сидеров - пишите в личку M0p94ok. Есть вопросы - support@pro-jazz.com
21:27
97
Нет комментариев. Ваш будет первым!