Вы используете незарегистрированную версию компонента "Вкладки"!

Поиск

2020 James Schroeder - Mesa Buoy {James Schroeder} [24-96]

2020 James Schroeder - Mesa Buoy {James Schroeder} [24-96]
Битрейт аудио:
lossless
Доп. инфо:

Формат записи/Источник записи: [TR24][OF]
Наличие водяных знаков: Нет
Год издания/переиздания диска: 2020
Издатель (лейбл): James Schroeder
Продолжительность: 00:43:54
Наличие сканов в содержимом раздачи: Только обложка альбома

Контейнер: FLAC (*.flac)
Тип рипа: tracks
Разрядность: 24/96, 24/48
Формат: PCM
Количество каналов: 2.0

Источник (релизер): bandcamp

Лог проверки качества
foobar2000 1.6.2 / Dynamic Range Meter 1.1.1
log date: 2021-03-11 17:45:50

--------------------------------------------------------------------------------
Analyzed: James Schroeder / Mesa Buoy
--------------------------------------------------------------------------------

DR         Peak         RMS     Duration Track
--------------------------------------------------------------------------------
DR11       0.00 dB   -14.15 dB      8:38 01-Cuts 1 & 2 (Peach & Buoy)
DR10      -0.26 dB   -13.56 dB      3:44 02-Adrift
DR10      -0.29 dB   -12.69 dB      4:38 03-NOLA
DR11      -0.18 dB   -12.59 dB      3:52 04-Neil Jung
DR11      -0.38 dB   -16.08 dB      6:49 05-Cut 4 (Siebe's Lament)
DR10      -0.35 dB   -11.89 dB      2:18 06-Maybe We...
DR11      -0.67 dB   -15.06 dB      3:53 07-Mr. & Mrs. Sprinkles
--------------------------------------------------------------------------------

Number of tracks:  7
Official DR value: DR11

Samplerate:        96000 Hz
Channels:          2
Bits per sample:   24
Bitrate:           2558 kbps
Codec:             FLAC
================================================================================
Any questions - support@pro-jazz.com. Есть вопросы - support@pro-jazz.com
00:53
88
Нет комментариев. Ваш будет первым!