Поиск

2021 Bruno Spoerri - Le Trio {Narrenschiff} [24-96]

2021 Bruno Spoerri - Le Trio {Narrenschiff} [24-96]
Стили:
Дата издания диска:
1 января 2021
Носитель:
WEB
Формат:
PCM
Тип рипа:
tracks
Контейнер:
FLAC (*.flac)
Количество каналов:
2.0
Разрядность/ЧД:
24/96
Битрейт аудио:
lossless
Наличие сканов:
только обложка

◈ 01 - Don’t Get Around Much Anymore (00:03:43)
◈ 02 - Bye Bye Blackbird (00:03:18)
◈ 03 - On The Way (00:02:33)
◈ 04 - For Varlin (00:03:16)
◈ 05 - Cantaloupe Island (00:03:47)
◈ 06 - I’m Confessin’ That I Love You (00:04:25)
◈ 07 - Tenderly (00:03:21)
◈ 08 - Nuages (00:03:44)
◈ 09 - The Girl From Ipanema (00:04:17)
◈ 10 - Willow Weep For Me (00:04:41)
◈ 11 - They Can’t Take That Away From Me (00:03:56)
◈ 12 - Wave (00:06:15)
◈ 13 - On The Sunny Side Of The Street (00:06:01)

Состав:
  • Bruno Spoerri, alto & tenor saxophone
  • Rainer Hagmann, violin
  • Dani Solimine, 7-string guitar
Лог проверки качества
foobar2000 1.4.2 / Dynamic Range Meter 1.1.1
log date: 2021-06-08 17:03:58

--------------------------------------------------------------------------------
Analyzed: Bruno Spoerri / Le Trio
--------------------------------------------------------------------------------

DR         Peak         RMS     Duration Track
--------------------------------------------------------------------------------
DR13      -0.10 dB   -15.27 dB      3:44 01-Don’t Get Around Much Anymore
DR13      -0.10 dB   -14.64 dB      3:18 02-Bye Bye Blackbird
DR13      -0.10 dB   -14.04 dB      2:33 03-On The Way
DR12      -0.70 dB   -16.09 dB      3:16 04-For Varlin
DR13      -0.10 dB   -14.59 dB      3:47 05-Cantaloupe Island
DR13      -0.10 dB   -14.85 dB      4:26 06-I’m Confessin’ That I Love You
DR12      -0.23 dB   -15.81 dB      3:21 07-Tenderly
DR12      -0.10 dB   -15.68 dB      3:45 08-Nuages
DR13      -0.10 dB   -15.28 dB      4:18 09-The Girl From Ipanema
DR13      -0.10 dB   -15.85 dB      4:41 10-Willow Weep For Me
DR15      -0.10 dB   -17.49 dB      3:56 11-They Can’t Take That Away From Me
DR15      -0.10 dB   -17.66 dB      6:15 12-Wave
DR15      -0.10 dB   -17.41 dB      6:01 13-On The Sunny Side Of The Street
--------------------------------------------------------------------------------

Number of tracks:  13
Official DR value: DR13

Samplerate:        96000 Hz
Channels:          2
Bits per sample:   24
Bitrate:           2386 kbps
Codec:             FLAC
================================================================================
Приватный:
Нет (DHT включён)
Размер:
945.60 Мб (991,534,755 байт) » файлов: 14
Участники:
34 раздают, 0 качают (34 участников всего)
Внешние участники:
3 раздают, 1 качают (4 участников всего) [ Обновить ]
21:31
485
Нет комментариев. Ваш будет первым!