Поиск

2020 Martin Perret's L'Anderer - Junctures {QFTF} [24-96]

2020 Martin Perret's L'Anderer - Junctures {QFTF} [24-96]
Стили:
Место записи:
Hitipapa Studio
Дата издания диска:
6 апреля 2020
Носитель:
WEB
Формат:
PCM
Тип рипа:
tracks
Контейнер:
FLAC (*.flac)
Количество каналов:
2.0
Разрядность/ЧД:
24/96
Битрейт аудио:
lossless
Наличие сканов:
только обложка

Состав:
  • Double Bass, Synthesizer – Alfred Lorinius
  • Drums, Percussion, Synthesizer – Martin Perret
  • Mastered By – Huntley Miller
  • Mixed By – Jan Wagner (2), Pola Roy
  • Piano – John Holmström (2)
  • Recorded By – Jan Wagner (2), Pola Roy
  • Synthesizer – Morris Kliphuis (треков: 1)
  • Tenor Saxophone – Otis Sandsjö
Лог проверки качества
foobar2000 1.6.2 / Dynamic Range Meter 1.1.1
log date: 2021-10-16 20:58:27

--------------------------------------------------------------------------------
Analyzed: Martin Perret's L'Anderer / Junctures
--------------------------------------------------------------------------------

DR         Peak         RMS     Duration Track
--------------------------------------------------------------------------------
DR7       -1.40 dB   -11.35 dB      7:58 01-Junctures
DR7       -1.40 dB   -10.54 dB      5:14 02-Quandaries
DR10      -1.40 dB   -15.42 dB      5:40 03-Atem
DR9       -1.40 dB   -14.64 dB     12:21 04-Some Place
DR7       -1.40 dB   -10.39 dB      4:51 05-A Long Distance
--------------------------------------------------------------------------------

Number of tracks:  5
Official DR value: DR8

Samplerate:        96000 Hz
Channels:          2
Bits per sample:   24
Bitrate:           2860 kbps
Codec:             FLAC
================================================================================
По всем вопросам пишите личное сообщение пользователю M0p94ok.
20:02
272
Нет комментариев. Ваш будет первым!