Поиск

1959 Nina Simone - Little Girl Blue (2021 Stereo Remaster) {BMG} [24-48]

1959 Nina Simone - Little Girl Blue (2021 Stereo Remaster) {BMG} [24-48]
Дата издания диска:
1 июня 2021
Издатель (лейбл):
Битрейт аудио:
lossless

◈ 01 - Mood Indigo (00:04:06)
◈ 02 - Don't Smoke in Bed (00:03:15)
◈ 03 - He Needs Me (00:02:32)
◈ 04 - Little Girl Blue (00:04:21)
◈ 05 - Love Me or Leave Me (00:03:26)
◈ 06 - My Baby Just Cares For Me (00:03:41)
◈ 07 - Good Bait (00:05:33)
◈ 08 - Plain Gold Ring (00:03:58)
◈ 09 - You'll Never Walk Alone (00:03:49)
◈ 10 - I Loves You Porgy (00:04:13)
◈ 11 - Central Park Blues (00:06:54)

Состав:
  • Jimmy Bond    Double Bass
  • Albert "Tootie" Heath    Drums
  • Joe Muranyi    Liner Notes
  • Nina Simone    Composer, Vocals
  • Scott Yanow    Liner Notes
Лог проверки качества
foobar2000 1.4.2 / Dynamic Range Meter 1.1.1
log date: 2021-06-08 17:20:25

--------------------------------------------------------------------------------
Analyzed: Nina Simone / Little Girl Blue (2021 - Stereo Remaster)
--------------------------------------------------------------------------------

DR         Peak         RMS     Duration Track
--------------------------------------------------------------------------------
DR12      -1.79 dB   -16.44 dB      4:06 01-Mood Indigo
DR12      -3.40 dB   -21.76 dB      3:15 02-Don't Smoke in Bed
DR13      -1.43 dB   -17.85 dB      2:33 03-He Needs Me
DR12      -1.76 dB   -20.49 dB      4:22 04-Little Girl Blue
DR11      -1.47 dB   -15.29 dB      3:26 05-Love Me or Leave Me
DR12      -2.05 dB   -16.80 dB      3:42 06-My Baby Just Cares For Me
DR14      -0.47 dB   -19.73 dB      5:34 07-Good Bait
DR14      -1.23 dB   -20.38 dB      3:58 08-Plain Gold Ring
DR11      -0.77 dB   -18.97 dB      3:49 09-You'll Never Walk Alone
DR13      -2.96 dB   -21.14 dB      4:14 10-I Loves You, Porgy
DR15      -1.33 dB   -19.77 dB      6:55 11-Central Park Blues
--------------------------------------------------------------------------------

Number of tracks:  11
Official DR value: DR13

Samplerate:        48000 Hz
Channels:          2
Bits per sample:   24
Bitrate:           1568 kbps
Codec:             FLAC
================================================================================
Скачивание доступно после регистрации!!
Приватный:
Нет (DHT включён)
Размер:
488.73 Мб (512,471,703 байт) » файлов: 12
Участники:
2 раздают, 0 качают (2 участников всего)
Внешние участники:
5 раздают, 2 качают (7 участников всего) [ Обновить ]
Скорость:
3.84 Мб/c 0/c
22:48
665
Нет комментариев. Ваш будет первым!