Поиск

1963 Herb Alpert's Tijuana Brass - Volume 2 (2015) {Herb Alpert} [24-44,1]

1963 Herb Alpert's Tijuana Brass - Volume 2 (2015) {Herb Alpert} [24-44,1]
Битрейт аудио:
lossless
Треклист:

◈ 01 - The Great Manolete (La Virgen de la Macarena) (00:02:26)
◈ 02 - Spanish Harlem (00:02:58)
◈ 03 - Swinger From Seville (00:02:35)
◈ 04 - Winds of Barcelona (00:02:21)
◈ 05 - Green Leaves of Summer (00:02:29)
◈ 06 - More (00:02:28)
◈ 07 - America (00:02:49)
◈ 08 - Surfin' Senorita (00:02:09)
◈ 09 - Marching Thru Madrid (00:02:31)
◈ 10 - Crea Mi Amor (Believe My Love) (00:02:30)
◈ 11 - Mexican Corn (00:02:08)
◈ 12 - Milord (00:02:21)

Состав:
  • Liner Notes – Hernando Cortés
  • Producer – Herb Alpert, Jerry Moss
Доп. инфо:

• Формат записи | Источник записи: [TR24][OF]
• Наличие водяных знаков: Нет
• Год издания релиза: 1963
• Лейбл: Herb Alpert Presents
• Продолжительность: 00:29:52
• Источник: internet
• WEB релиз: ссылка
• Контейнер: FLAC (*.flac)
• Тип рипа: tracks
• Разрядность: 24/44,1
• Формат: PCM
• Количество каналов: 2.0
• Наличие сканов: front

Лог проверки качества
foobar2000 1.4.2 / Dynamic Range Meter 1.1.1
log date: 2021-06-08 17:24:06

--------------------------------------------------------------------------------
Analyzed: Herb Alpert's Tijuana Brass / Volume 2
--------------------------------------------------------------------------------

DR         Peak         RMS     Duration Track
--------------------------------------------------------------------------------
DR11      -0.50 dB   -14.83 dB      2:27 01-The Great Manolete (La Virgen de la Macarena)
DR11      -0.50 dB   -14.25 dB      2:59 02-Spanish Harlem
DR11      -0.50 dB   -14.03 dB      2:35 03-Swinger From Seville
DR12      -0.52 dB   -13.95 dB      2:22 04-Winds of Barcelona
DR10      -1.61 dB   -15.65 dB      2:30 05-Green Leaves of Summer
DR11      -0.66 dB   -13.81 dB      2:29 06-More
DR11      -1.09 dB   -14.90 dB      2:49 07-America
DR11      -0.62 dB   -13.77 dB      2:10 08-Surfin' SeГ±orita
DR11      -0.50 dB   -14.40 dB      2:32 09-Marching Thru Madrid
DR12      -0.51 dB   -15.26 dB      2:30 10-Crea Mi Amor (Believe My Love)
DR12      -1.62 dB   -16.39 dB      2:08 11-Mexican Corn
DR11      -0.94 dB   -15.31 dB      2:22 12-Milord
--------------------------------------------------------------------------------

Number of tracks:  12
Official DR value: DR11

Samplerate:        44100 Hz
Channels:          2
Bits per sample:   24
Bitrate:           1664 kbps
Codec:             FLAC
================================================================================
По всем вопросам пишите личное сообщение пользователю M0p94ok.
08:39
230
Нет комментариев. Ваш будет первым!