Поиск

2020 Neuklang Klangwelten Erleben, Vol. 10 {Neuklang} [24-44.1-96]

2020 Neuklang Klangwelten Erleben, Vol. 10 {Neuklang} [24-44.1-96]
Стили:
Дата издания диска:
3 апреля 2020
Номер по каталогу:
NCD4249
Носитель:
WEB
Формат:
PCM
Тип рипа:
tracks
Контейнер:
FLAC (*.flac)
Количество каналов:
2.0
Разрядность/ЧД:
24/96
Битрейт аудио:
lossless
Наличие сканов:
только обложка
Треклист:

1. Marc Perrenoud Trio - The Reb  4:14
2. Florian Weiss' Woodoism - Danse amoureuse  6:33
3. Sarah Chaksad Orchestra, Guillermo Klein - Mehamn  7:38
4. Marc Perrenoud Trio, Paul Jarret - Sjutton år  12:53
5. Still in the Woods, Raphael Seidel - Fountain  3:55
6. Silvan Joray Trio - See You in June  6:19
7. Initiative H, Moondog - Bird's Lament  8:25
8. Eva Kess - Ikigai  4:14

Состав:
  • Eva Kess (bass guitar)
  • Vincent Millioud (fiddle)
  • Susanna Andres (fiddle)
  • Nao Rohr (viola d'amore)
  • Ambrosius Huber (cello)
  • Simon Schwaninger (piano)
  • Philipp Leibundgut (drums)
  • Marc Perrenoud Trio
  • Florian Weiss' Woodoism
  • Sarah Chaksad Orchestra
  • Still in the Woods
  • Silvan Joray Trio
  • Initiative H
  • Guillermo Klein
Лог проверки качества
foobar2000 1.6.2 / Dynamic Range Meter 1.1.1
log date: 2021-10-19 13:44:24

--------------------------------------------------------------------------------
Analyzed: Initiative H / Neuklang Klangwelten Erleben, Vol. 10 (1)
          Marc Perrenoud Trio / Neuklang Klangwelten Erleben, Vol. 10 (2)
--------------------------------------------------------------------------------

DR         Peak         RMS     Duration Track
--------------------------------------------------------------------------------
DR9       -0.61 dB   -12.05 dB      8:26 07-Bird's Lament (Live) (44.1kHz)
DR10      -0.48 dB   -15.11 dB     12:53 04-Sjutton År (44.1kHz)
--------------------------------------------------------------------------------

Number of tracks:  2
Official DR value: DR10

Samplerate:        44100 Hz
Channels:          2
Bits per sample:   24
Bitrate:           1446 kbps
Codec:             FLAC
================================================================================

--------------------------------------------------------------------------------
Statistics for: 08-Ikigai (48kHz)
Number of samples: 12234171
Duration: 4:15 
--------------------------------------------------------------------------------

                 Left              Right

Peak Value:     -0.29 dB   ---     -0.30 dB   
Avg RMS:       -13.34 dB   ---    -13.32 dB   
DR channel:     10.23 dB   ---     10.19 dB   
--------------------------------------------------------------------------------

Official DR Value: DR10

Samplerate:        48000 Hz
Channels:          2
Bits per sample:   24
Bitrate:           1721 kbps
Codec:             FLAC
================================================================================
--------------------------------------------------------------------------------
Statistics for: 01-The Reb (88.2kHz)
Number of samples: 22422792
Duration: 4:14 
--------------------------------------------------------------------------------

                 Left              Right

Peak Value:     -0.73 dB   ---     -0.73 dB   
Avg RMS:       -10.54 dB   ---    -11.12 dB   
DR channel:      7.69 dB   ---      8.36 dB   
--------------------------------------------------------------------------------

Official DR Value: DR8

Samplerate:        88200 Hz
Channels:          2
Bits per sample:   24
Bitrate:           2930 kbps
Codec:             FLAC
================================================================================
--------------------------------------------------------------------------------
Analyzed: Florian Weiss' Woodoism / Neuklang Klangwelten Erleben, Vol. 10 (1)
          Sarah Chaksad Orchestra, Guillermo Klein / Neuklang Klangwelten Erleben, Vol. 10 (2)
          Silvan Joray Trio / Neuklang Klangwelten Erleben, Vol. 10 (3)
          Still in the Woods / Neuklang Klangwelten Erleben, Vol. 10 (4)
--------------------------------------------------------------------------------

DR         Peak         RMS     Duration Track
--------------------------------------------------------------------------------
DR9       -0.73 dB   -13.87 dB      6:34 02-Danse amoureuse
DR10      -0.73 dB   -14.36 dB      7:38 03-Mehamn
DR10      -1.06 dB   -13.64 dB      6:20 06-See You in June
DR6       -0.62 dB    -8.95 dB      3:56 05-Fountain
--------------------------------------------------------------------------------

Number of tracks:  4
Official DR value: DR9

Samplerate:        96000 Hz
Channels:          2
Bits per sample:   24
Bitrate:           2871 kbps
Codec:             FLAC
================================================================================
По всем вопросам пишите личное сообщение пользователю M0p94ok.
13:38
213
Нет комментариев. Ваш будет первым!