Поиск

2021 Bill Charlap Trio - Street Of Dreams {Blue Note} [24-96]

2021 Bill Charlap Trio - Street Of Dreams {Blue Note} [24-96]
Стили:
Дата издания диска:
12 ноября 2021
Издатель (лейбл):
Носитель:
WEB
Формат:
PCM
Тип рипа:
tracks
Контейнер:
FLAC (*.flac)
Количество каналов:
2.0
Разрядность/ЧД:
24/96
Битрейт аудио:
lossless
Время звучания:
00:45:30
Наличие сканов:
только обложка

01 - The Duke 06:48
02 - Day Dream 06:17
03 - You're All The World To Me 04:49
04 - I'll Know 05:15
05 - Your Host 04:00
06 - Out Of Nowhere 05:27
07 - What Are You Doing The Rest Of Your Life? 07:34
08 - Street Of Dreams 05:20

Состав:
  •     Bass – Peter Washington
  •     Drums – Kenny Washington
  •     Mastered By – Mark Wilder
  •     Mixed By [Assistant], Edited By [Assistant] – Steven Sacco (2)
  •     Piano, Producer [Produced By] – Bill Charlap
  •     Recorded By [Assisted By] – Owen Mulholland
  •     Recorded By, Mixed By, Edited By, Engineer – James Farber
Лог проверки качества
foobar2000 1.4.3 / Dynamic Range Meter 1.1.1
log date: 2021-11-11 21:28:14
--------------------------------------------------------------------------------
Analyzed: Bill Charlap Trio / Street Of Dreams
--------------------------------------------------------------------------------
DR         Peak         RMS     Duration Track
--------------------------------------------------------------------------------
DR13      -0.20 dB   -15.91 dB      6:49 01-The Duke
DR14      -0.39 dB   -19.14 dB      6:17 02-Day Dream
DR13      -0.21 dB   -15.72 dB      4:49 03-You're All The World To Me
DR14      -0.49 dB   -18.98 dB      5:16 04-I'll Know
DR14      -0.81 dB   -17.72 dB      4:01 05-Your Host
DR14      -0.21 dB   -16.75 dB      5:27 06-Out Of Nowhere
DR16      -0.35 dB   -21.51 dB      7:34 07-What Are You Doing The Rest Of Your Life?
DR17      -0.21 dB   -21.52 dB      5:20 08-Street Of Dreams
--------------------------------------------------------------------------------
Number of tracks:  8
Official DR value: DR14
Samplerate:        96000 Hz
Channels:          2
Bits per sample:   24
Bitrate:           2719 kbps
Codec:             FLAC
================================================================================
Приватный:
Нет (DHT включён)
Размер:
910.04 Мб (954,243,995 байт) » файлов: 13
Участники:
0 раздают, 0 качают (0 участников всего)
Внешние участники:
9 раздают, 3 качают (12 участников всего) [ Обновить ]
16:57
404
Нет комментариев. Ваш будет первым!