Поиск

2021 Pat Bianchi - Something to Say - The Music of Stevie Wonder {Savant} [24-88.2]

2021 Pat Bianchi - Something to Say - The Music of Stevie Wonder {Savant} [24-88.2]
Стили:
Дата издания диска:
12 ноября 2021
Издатель (лейбл):
Носитель:
WEB
Формат:
PCM
Тип рипа:
tracks
Контейнер:
FLAC (*.flac)
Количество каналов:
2.0
Разрядность/ЧД:
24/88,2
Битрейт аудио:
lossless
Время звучания:
00:46:28
Наличие сканов:
только обложка

Треклист:

01 - Go Home 04:42
02 - Until You Come Back to Me (That's What I'm Gonna Do) 05:23
03 - Superstition 07:18
04 - Moon Blue 06:22
05 - Isn't She Lovely 05:06
06 - If It's Magic 05:52
07 - Something to Say 04:54
08 - Just Callin' 04:32
09 - Ribbon in the Sky 02:19

Состав:
  • Pat Bianchi, organ
  • Paul Bollenback, guitar
  • Byron Landham, drums
  • With guest artist Wayne Escoffery, tenor saxophone
Лог проверки качества
foobar2000 1.4.3 / Dynamic Range Meter 1.1.1
log date: 2021-11-12 09:05:28
--------------------------------------------------------------------------------
Analyzed: Pat Bianchi / Something to Say - The Music of Stevie Wonder
--------------------------------------------------------------------------------
DR         Peak         RMS     Duration Track
--------------------------------------------------------------------------------
DR9       -0.27 dB   -11.77 dB      4:42 01-Go Home
DR10      -0.33 dB   -13.05 dB      5:23 02-Until You Come Back to Me (That's What I'm Gonna Do)
DR9       -0.28 dB   -11.16 dB      7:19 03-Superstition
DR12      -0.48 dB   -15.66 dB      6:22 04-Moon Blue
DR8       -0.08 dB    -9.66 dB      5:07 05-Isn't She Lovely
DR10      -0.21 dB   -12.98 dB      5:53 06-If It's Magic
DR9       -0.26 dB   -12.10 dB      4:55 07-Something to Say
DR8       -0.18 dB    -9.47 dB      4:32 08-Just Callin'
DR12      -0.68 dB   -16.89 dB      2:19 09-Ribbon in the Sky
--------------------------------------------------------------------------------
Number of tracks:  9
Official DR value: DR10
Samplerate:        88200 Hz
Channels:          2
Bits per sample:   24
Bitrate:           2024 kbps
Codec:             FLAC
================================================================================
По всем вопросам пишите личное сообщение пользователю M0p94ok.
17:43
116
Нет комментариев. Ваш будет первым!