Поиск

1959 Tommy Flanagan, Idrees Sulieman, Kenny Burrell, John Coltrane - The Cats! (2021) {RevOla} [24-96]

1959 Tommy Flanagan, Idrees Sulieman, Kenny Burrell, John Coltrane - The Cats! (2021) {RevOla} [24-96]
Дата записи диска:
18 апреля 1957
Место записи:
Rudy Van Gelder Studio, Englewood Cliffs, New Jersey, USA
Издатель (лейбл):
Носитель:
WEB
Формат:
PCM
Тип рипа:
tracks
Контейнер:
FLAC (*.flac)
Количество каналов:
2.0
Разрядность/ЧД:
24/96
Битрейт аудио:
lossless
Время звучания:
00:42:35
Наличие сканов:
только обложка

01 - Minor Mishap 07:27
02 - How Long Has This Been Going On? 05:59
03 - Eclypso 07:59
04 - Solacium 09:11
05 - Tommy's Tune 11:59

Состав:
Лог проверки качества
foobar2000 1.4.3 / Dynamic Range Meter 1.1.1
log date: 2021-11-11 20:38:45
--------------------------------------------------------------------------------
Analyzed: Tommy Flanagan / The Cats
--------------------------------------------------------------------------------
DR         Peak         RMS     Duration Track
--------------------------------------------------------------------------------
DR11      -0.36 dB   -13.78 dB      7:25 01-Minor Mishap
DR16      -2.81 dB   -21.47 dB      5:58 02-How Long Has This Been Going On?
DR12      -0.36 dB   -14.20 dB      7:57 03-Eclypso
DR11      -0.35 dB   -14.42 dB      9:09 04-Solacium
DR12      -0.35 dB   -14.74 dB     11:56 05-Tommy's Time
--------------------------------------------------------------------------------
Number of tracks:  5
Official DR value: DR12
Samplerate:        96000 Hz
Channels:          2
Bits per sample:   24
Bitrate:           2062 kbps
Codec:             FLAC
================================================================================
Приватный:
Нет (DHT включён)
Размер:
617.51 Мб (647,508,555 байт) » файлов: 11
Участники:
6 раздают, 1 качают (7 участников всего)
Внешние участники:
12 раздают, 4 качают (16 участников всего) [ Обновить ]
19:05
437
Нет комментариев. Ваш будет первым!