Поиск

2013 Jenna Mammina - The Music & The Magic of Ms. Abbey Lincoln (2019) {Mamma Grace} [DSD256]

2013 Jenna Mammina - The Music & The Magic of Ms. Abbey Lincoln (2019) {Mamma Grace} [DSD256]
Стили:
Носитель:
WEB
Формат:
DSD
Тип рипа:
tracks
Контейнер:
DSF (*.dsf)
Количество каналов:
2.0
Разрядность/ЧД:
256 (11.2MHz/1bit)
Битрейт аудио:
lossless
Время звучания:
00:54:27
Наличие сканов:
только обложка

01. When I'm Called Home
02. The Music Is The Magic
03. Not To Worry
04. Talking to the Sun
05. The World Is Falling Down
06. Rainbow
07. Down Here Below
08. I Got Thunder
09. Should Have Been
10. Throw It Away
11. Bird Alone

Состав:
  • Jenna Mammina    Vocals
Лог проверки качества
foobar2000 1.6.5 / Замер динамического диапазона (DR) 1.1.1
Дата отчёта:  2021-11-07 01:13:49
--------------------------------------------------------------------------------
Анализ:   Jenna Mammina / The Music & The Magic of Ms. Abbey Lincoln
--------------------------------------------------------------------------------
DR         Пики         RMS           Продолжительность трека
--------------------------------------------------------------------------------
DR14      -7.89 дБ   -27.91 дБ      4:39 01-When I'm Called Home
DR13      -7.56 дБ   -25.39 дБ      4:37 02-The Music Is The Magic
DR14      -8.39 дБ   -28.35 дБ      5:02 03-Not To Worry
DR14      -8.17 дБ   -26.61 дБ      4:31 04-Talking to the Sun
DR15      -7.03 дБ   -26.52 дБ      3:39 05-The World Is Falling Down
DR17      -7.46 дБ   -29.83 дБ      4:45 06-Rainbow
DR15      -7.10 дБ   -28.65 дБ      5:43 07-Down Here Below
DR13      -7.37 дБ   -24.56 дБ      4:10 08-I Got Thunder
DR14      -8.34 дБ   -27.83 дБ      5:14 09-Should Have Been
DR16      -7.06 дБ   -27.53 дБ      6:09 10-Throw It Away
DR15      -8.64 дБ   -29.11 дБ      6:00 11-Bird Alone
--------------------------------------------------------------------------------
Количество треков: 11
Реальные значения DR: DR15
Частота:   11289600 Гц / Частота PCM: 88200 Гц
Каналов:   2
Разрядность:   1
Битрейт:   22579 кбит/с
Кодек:   DSD256
================================================================================
Приватный:
Нет (DHT включён)
Размер:
8.60 Гб (9,232,904,451 байт) » файлов: 14
Участники:
0 раздают, 0 качают (0 участников всего)
Внешние участники:
9 раздают, 3 качают (12 участников всего) [ Обновить ]
18:03
345
Нет комментариев. Ваш будет первым!