Поиск

2018 Davide Palladin Trio - Gentle Art Of Love {Venus} [DSD64 ISO]

2018 Davide Palladin Trio - Gentle Art Of Love {Venus} [DSD64 ISO]
Стили:
Дата записи диска:
2 августа - 3 августа 2017
Место записи:
Riverside Studios, Torino, Italy
Издатель (лейбл):
Номер по каталогу:
VHGD-284
Носитель:
SACD
Формат:
DSD
Тип рипа:
image
Контейнер:
ISO (*.iso)
Количество каналов:
2.0
Разрядность/ЧД:
64 (2,8 MHz/1 Bit)
Битрейт аудио:
lossless
Время звучания:
01:06:25
Наличие сканов:
только обложка

01. Theme For Basie《 P. Newborn, Jr 》
02. I Want To Be Happy《 V. Youmans 》
03. Sweet Pumpkins《 R. L. Bright 》
04. Gentle Art Of Love《 O. Pettiford 》
05. Beautiful Friendship《 D. Kahn 》
06. The Party Is Over《 J. Styne 》
07. F.S.R.《 R. Brown 》
08. But Not For Me《 G. Gershwin 》
09. To Each His Own《 J. Livingston, R. Evans 》
10. Chicago《 F. Fisher 》
11. Body And Soul《 J. Green 》

Состав:
  • Davide Palladin — guitar
  • Massimo Farao' — piano
  • Nicola Barbon — bass
Лог проверки качества
foobar2000 1.6.7 / Dynamic Range Meter 1.1.1
log date: 2021-11-11 17:37:45
--------------------------------------------------------------------------------
Analyzed: DAVIDE PALLADIN TRIO / Gentle Art Of Love
--------------------------------------------------------------------------------
DR         Peak         RMS     Duration Track
--------------------------------------------------------------------------------
DR5       -4.97 dB   -11.38 dB      7:41 01-Theme For Basie
DR5       -4.83 dB   -10.58 dB      5:36 02-I Want To Be Happy
DR5       -5.10 dB   -11.40 dB      5:44 03-Sweet Pumpkins
DR6       -5.17 dB   -13.55 dB      4:18 04-Gentle Art Of Love
DR5       -5.12 dB   -10.91 dB      4:53 05-Beautiful Friendship
DR5       -4.97 dB   -11.77 dB      6:34 06-The Party Is Over
DR5       -4.95 dB   -11.25 dB      4:39 07-F.S.R.
DR5       -5.00 dB   -11.56 dB      6:31 08-But Not For Me
DR5       -5.02 dB   -11.18 dB      8:28 09-To Each His Own
DR5       -5.12 dB   -11.26 dB      5:26 10-Chicago
DR5       -5.18 dB   -12.78 dB      6:36 11-Body And Soul
--------------------------------------------------------------------------------
Number of tracks:  11
Official DR value: DR5
Samplerate:        2822400 Hz / PCM Samplerate: 88200 Hz
Channels:          2
Bits per sample:   1
Bitrate:           5645 kbps
Codec:             DSD64
================================================================================
15:58
419
Нет комментариев. Ваш будет первым!