Вы используете незарегистрированную версию компонента "Вкладки"!

Поиск

2021 Arooj Aftab - Vulture Prince {New Amsterdam} [24-96]

2021 Arooj Aftab - Vulture Prince {New Amsterdam} [24-96]
Дата издания диска:
23 апреля 2021
Носитель:
WEB
Формат:
PCM
Тип рипа:
tracks
Контейнер:
FLAC (*.flac)
Количество каналов:
2.0
Разрядность/ЧД:
24/96
Битрейт аудио:
lossless
Время звучания:
00:46:37
Наличие сканов:
только обложка
Страна-производитель диска (релиза):
USA
Релизёр (источник):
soloneba
Лог проверки качества
foobar2000 1.1.15 / Dynamic Range Meter 1.1.1
log date: 2021-05-06 12:11:52

--------------------------------------------------------------------------------
Analyzed: Arooj Aftab / Vulture Prince
--------------------------------------------------------------------------------

DR         Peak         RMS     Duration Track
--------------------------------------------------------------------------------
DR10      -0.10 dB   -13.64 dB      6:44 01-Baghon Main
DR10      -0.10 dB   -13.94 dB      5:40 02-Diya Hai
DR10      -0.10 dB   -14.20 dB      7:47 03-Inayaat
DR9       -0.10 dB   -12.54 dB      5:59 04-Last Night
DR11      -0.10 dB   -13.15 dB      7:43 05-Mohabbat
DR10      -0.12 dB   -13.96 dB      7:31 06-Saans Lo
DR9       -0.10 dB   -11.09 dB      5:12 07-Suroor
--------------------------------------------------------------------------------

Number of tracks:  7
Official DR value: DR10

Samplerate:        96000 Hz
Channels:          2
Bits per sample:   24
Bitrate:           2581 kbps
Codec:             FLAC
================================================================================
Any questions - support@pro-jazz.com. Есть вопросы - support@pro-jazz.com
14:17
110
Нет комментариев. Ваш будет первым!