Поиск

2021 Ai Kuwabara - Opera {Universal} [24-96]

2021 Ai Kuwabara - Opera {Universal} [24-96]
Дата издания диска:
8 апреля 2021
Издатель (лейбл):
Битрейт аудио:
lossless
Доп. инфо:

Ай Кувабара создает свою оригинальную музыку в сотрудничестве с басистом Юсуке Морита для этого проекта фортепианного трио. В то время как ее музыка вызывает в памяти поразительное сходство с музыкой двух ее самых любимых и уважаемых джазовых пианистов, Мишеля Петруччиани и Эсбьорна Свенссона из Трио Эсбьорна Свенссона (EST), Кувабара выражает свой творческий мир, опираясь на свою пышную чувствительность и точность техники.

Первый альбом трио «from here to there» (ewe records) дебютировал на национальном уровне в Японии в ноябре 2012 года, а их второй альбом «THE SIXTH SENSE» (ewe records), выпущенный в апреле 2013 года, занял первое место в рейтинге Tower Records Jazz Chart (Japan). Кроме того, издание The Japan Times выбрало его как лучший альбом первого полугодия 2013 года (категория джаз), что является большим признанием.

Трио выступало на нескольких фестивалях, включая Sapporo City Jazz 2013 и 12th Tokyo Jazz Festival (Tokyo International Forum, Hall A), а также выступало в 4 городах западного побережья США (Беркли, Лос-Анджелес, Денвер, Анкоридж). и добился большого успеха.

Они выпустили свой третий альбом "The Window" (ewe records), выпущенный в апреле 2014 года.

Формат записи/Источник записи: [TR24][OF]
Наличие водяных знаков: Нет
Год издания: 2021
Продолжительность: 01:07:48
Наличие сканов в содержимом раздачи: Только обложка альбома
Контейнер: FLAC (*.flac)
Тип рипа: tracks
Разрядность: 24/96
Формат: PCM
Количество каналов: 2.0
Источник (релизер): highresaudio.com

Лог проверки качества
foobar2000 1.4.8 / Dynamic Range Meter 1.1.1
log date: 2021-04-08 22:03:27

--------------------------------------------------------------------------------
Analyzed: Ai Kuwabara / Opera
--------------------------------------------------------------------------------

DR         Peak         RMS     Duration Track
--------------------------------------------------------------------------------
DR14      -2.26 dB   -22.05 dB      8:16 01-New Cinema Paradise
DR12      -0.10 dB   -16.51 dB      5:42 02-Livin’ On A Prayer
DR12      -0.97 dB   -18.83 dB      5:34 03-Leonora's Love Theme
DR13      -0.10 dB   -17.62 dB      6:31 04-Loro
DR13      -5.29 dB   -23.64 dB      5:39 05-Waltz For Debby
DR12      -0.10 dB   -18.62 dB      4:28 06-Hoshikageno Yell
DR13      -0.10 dB   -19.11 dB      7:31 07-Going To A Town
DR12      -0.10 dB   -17.59 dB      6:10 08-Mishaps Happening
DR12      -0.71 dB   -20.07 dB      8:05 09-Everything Must Change
DR13      -1.45 dB   -21.61 dB      6:00 10-The Back
DR12      -1.97 dB   -18.09 dB      4:00 11-Daydream Believer
--------------------------------------------------------------------------------

Number of tracks:  11
Official DR value: DR13
Samplerate:        96000 Hz
Channels:          2
Bits per sample:   24
Bitrate:           2340 kbps
Codec:             FLAC
================================================================================
No seeders - write personal message to M0p94ok. Any questions - support@pro-jazz.com.
Нет сидеров - пишите в личку M0p94ok. Есть вопросы - support@pro-jazz.com
17:47
48
Нет комментариев. Ваш будет первым!