Поиск

2015 Randy Bernsen - Grace Notes (2019) {Blue Canoe} [24-44.1]

2015 Randy Bernsen - Grace Notes (2019) {Blue Canoe} [24-44.1]
Стили:
Дата издания диска:
18 сентября 2015
Дата переиздания диска:
13 декабря 2019
Носитель:
WEB
Формат:
PCM
Тип рипа:
tracks
Контейнер:
FLAC (*.flac)
Количество каналов:
2.0
Разрядность/ЧД:
24/44,1
Битрейт аудио:
lossless
Время звучания:
00:40:43
Наличие сканов:
только обложка
Страна-производитель диска (релиза):
USA
Релизёр (источник):
M0p94ok
Лог проверки качества
foobar2000 1.6.2 / Dynamic Range Meter 1.1.1
log date: 2021-07-14 20:19:26

--------------------------------------------------------------------------------
Analyzed: Randy Bernsen / Grace Notes
--------------------------------------------------------------------------------

DR         Peak         RMS     Duration Track
--------------------------------------------------------------------------------
DR16      -1.95 dB   -20.56 dB      5:17 01-Black Top
DR16      -3.43 dB   -22.25 dB      4:57 02-Red Clay
DR17      -0.03 dB   -21.67 dB      5:14 03-Grace
DR15      -3.39 dB   -20.97 dB      4:30 04-Indian Rivers
DR14      -6.09 dB   -22.84 dB      4:24 05-She's A Woman
DR14      -5.20 dB   -22.85 dB      6:12 06-Blues Traveler
DR9       -0.41 dB   -11.22 dB      4:41 07-Freddie's Conversion
DR16      -2.53 dB   -20.85 dB      5:28 08-Malibu Man
--------------------------------------------------------------------------------

Number of tracks:  8
Official DR value: DR15

Samplerate:        44100 Hz
Channels:          2
Bits per sample:   24
Bitrate:           1561 kbps
Codec:             FLAC
================================================================================
No seeders - write personal message to M0p94ok. Any questions - support@pro-jazz.com.
Нет сидеров - пишите в личку M0p94ok. Есть вопросы - support@pro-jazz.com
21:09
45
Нет комментариев. Ваш будет первым!