Поиск

1973 Gato Barbieri - Under Fire (2016) {Ace} [24-48]

1973 Gato Barbieri - Under Fire (2016) {Ace} [24-48]
Дата переиздания диска:
29 января 2016
Битрейт аудио:
lossless
Доп. инфо:

Формат записи/Источник записи: [TR24][OF]
Издание: Remastered
Год издания/переиздания диска: 1971/2016
Издатель (лейбл): Ace Records
Продолжительность: 00:35:43
Наличие сканов в содержимом раздачи: Нет

Контейнер: FLAC (*.flac)
Тип рипа: tracks
Разрядность: 24/48
Количество каналов: 2.0

 

Лог проверки качества
foobar2000 1.4.3 / Dynamic Range Meter 1.1.1
log date: 2021-04-07 17:48:33

--------------------------------------------------------------------------------
Analyzed: Gato Barbieri / Under Fire
--------------------------------------------------------------------------------

DR         Peak         RMS     Duration Track
--------------------------------------------------------------------------------
DR11      -5.56 dB   -18.69 dB      9:08 01-El Paraná
DR13      -5.86 dB   -21.19 dB      4:51 02-Yo Le Canto a La Luna
DR12      -4.10 dB   -18.65 dB      3:50 03-Antonico
DR12      -4.10 dB   -19.45 dB      9:35 04-Maria Domingas
DR13      -4.64 dB   -20.43 dB      8:21 05-El Sertao
--------------------------------------------------------------------------------

Number of tracks:  5
Official DR value: DR12

Samplerate:        48000 Hz
Channels:          2
Bits per sample:   24
Bitrate:           1646 kbps
Codec:             FLAC
================================================================================
No seeders - write personal message to M0p94ok. Any questions - support@pro-jazz.com.
Нет сидеров - пишите в личку M0p94ok. Есть вопросы - support@pro-jazz.com
21:29
45
Нет комментариев. Ваш будет первым!