Вы используете незарегистрированную версию компонента "Вкладки"!

Поиск

2019 Pasquale Grasso - Solo Monk {Okeh, Sony Masterworks} [24-96]

2019 Pasquale Grasso - Solo Monk {Okeh, Sony Masterworks} [24-96]
Дата издания диска:
11 октября 2019
Издатель (лейбл):
Носитель:
WEB
Формат:
PCM
Тип рипа:
tracks
Контейнер:
FLAC (*.flac)
Количество каналов:
2.0
Разрядность/ЧД:
24/96
Битрейт аудио:
lossless
Время звучания:
00:18:09
Наличие сканов:
только обложка
Страна-производитель диска (релиза):
USA
Релизёр (источник):
M0p94ok
Лог проверки качества
foobar2000 1.3.7 / Dynamic Range Meter 1.1.1
log date: 2019-10-11 01:37:27

--------------------------------------------------------------------------------
Analyzed: Pasquale Grasso / Solo Monk
--------------------------------------------------------------------------------

DR         Peak         RMS     Duration Track
--------------------------------------------------------------------------------
DR11      -1.12 dB   -13.70 dB      2:47 01-Epistrophy
DR10      -1.12 dB   -14.02 dB      5:08 02-'Round Midnight
DR9       -1.12 dB   -12.39 dB      3:59 03-Ruby, My Dear
DR9       -1.12 dB   -13.37 dB      3:03 04-Criss Cross
DR10      -1.12 dB   -13.39 dB      3:12 05-Off Minor
--------------------------------------------------------------------------------

Number of tracks:  5
Official DR value: DR10

Samplerate:        96000 Hz
Channels:          2
Bits per sample:   24
Bitrate:           2141 kbps
Codec:             FLAC
================================================================================
Any questions - support@pro-jazz.com. Есть вопросы - support@pro-jazz.com
21:18
68
Нет комментариев. Ваш будет первым!