Поиск

2021 Luca Begonia Quartet - Sweet Waltz {Venus} [DSD64 ISO]

2021 Luca Begonia Quartet - Sweet Waltz {Venus} [DSD64 ISO]
Дата записи диска:
21 февраля 2020
Место записи:
Riverside Studio, Torino, Italy
Дата издания диска:
20 января 2021
Издатель (лейбл):
Номер по каталогу:
VHGD-363
Битрейт аудио:
lossless
Доп. инфо:

Формат записи/Источник записи: [SACD-R][OF]
Наличие водяных знаков: Нет
Год издания диска: 2021
Продолжительность: 01:01:04
Наличие сканов в содержимом раздачи: Только обложка альбома

Контейнер: ISO (*.iso)
Тип рипа: image
Разрядность: 64(2,8 MHz/1 Bit)
Формат: DSD
Количество каналов: 2.0

Доп. информация: venusrecords
Источник (релизер): jazzy pic

Лог проверки качества
foobar2000 1.6.4 / Dynamic Range Meter 1.1.1
log date: 2021-04-08 19:20:12

--------------------------------------------------------------------------------
Analyzed: Luca Begonia Quartet / SWEET WALTZ
--------------------------------------------------------------------------------

DR         Peak         RMS     Duration Track
--------------------------------------------------------------------------------
DR9       -5.40 dB   -16.66 dB      4:33 01-Why Not
DR9       -5.26 dB   -17.17 dB      5:19 02-Undecided
DR9       -5.47 dB   -16.59 dB      5:19 03-Jive At Five
DR10      -5.65 dB   -18.28 dB      4:07 04-Commutation
DR10      -5.53 dB   -17.74 dB      5:36 05-Jones' Tones
DR9       -5.57 dB   -18.16 dB      6:53 06-Old Folks
DR9       -5.32 dB   -16.95 dB      4:37 07-Sweet Waltz
DR9       -5.45 dB   -16.70 dB      6:01 08-I Won't Dance
DR10      -5.66 dB   -18.53 dB      8:17 09-Skylark
DR9       -4.86 dB   -16.13 dB      5:32 10-How About You
DR9       -5.17 dB   -16.62 dB      4:51 11-Pardon My Blues
--------------------------------------------------------------------------------

Number of tracks:  11
Official DR value: DR9

Samplerate:        2822400 Hz / PCM Samplerate: 88200 Hz
Channels:          2
Bits per sample:   1
Bitrate:           5645 kbps
Codec:             DSD64
================================================================================
No seeders - write personal message to M0p94ok. Any questions - support@pro-jazz.com.
Нет сидеров - пишите в личку M0p94ok. Есть вопросы - support@pro-jazz.com
15:08
91
Нет комментариев. Ваш будет первым!