Поиск

2021 Abdullah Ibrahim - Solotude {Gearbox} [24-96]

2021 Abdullah Ibrahim - Solotude {Gearbox} [24-96]
Дата издания диска:
26 ноября 2021
Номер по каталогу:
GB1575
Носитель:
WEB
Формат:
PCM
Тип рипа:
tracks
Контейнер:
FLAC (*.flac)
Количество каналов:
2.0
Разрядность/ЧД:
24/96
Битрейт аудио:
lossless
Время звучания:
00:39:31
Наличие сканов:
только обложка
Релизёр (источник):
Qobuz

01. Mindiff (03:10)
02. Trieste My Love (1:56)
03. Nisa (2:25)
04. Blue Bolero (2:09)
05. In-Tempo (5:05)
06. Dreamtime (2:31)
07. Blue Bolero (First Reprise) (0:39)
08. Peace (1:50)
09. Blues for a Hip King (1:06)
10. District 6 (1:02)
11. Tokai (0:40)
12. District 6 (Reprise) (0:15)
13. Pula (0:42)
14. Sotho Blue (3:21)
15. Blue Bolero (Second Reprise) (0:23)
16. Did You Hear That Sound? (1:29)
17. In the Evening (1:33)
18. Once Upon a Midnight (6:28)
19. The Wedding (4:53)
20. Signal On the Hill (1:06)

Состав:
Лог проверки качества
foobar2000 2.1.1 / Dynamic Range Meter 1.1.1
log date: 2024-07-05 11:50:30

--------------------------------------------------------------------------------
Analyzed: Abdullah Ibrahim / Solotude
--------------------------------------------------------------------------------

DR         Peak         RMS     Duration Track
--------------------------------------------------------------------------------
DR14      -1.56 dB   -22.27 dB      3:10 01-Mindiff
DR12      -3.08 dB   -20.79 dB      1:56 02-Trieste My Love
DR13      -2.08 dB   -19.12 dB      2:25 03-Nisa
DR14      -4.25 dB   -24.00 dB      2:09 04-Blue Bolero
DR13      -2.01 dB   -18.72 dB      5:05 05-In-Tempo
DR13      -1.57 dB   -20.38 dB      2:31 06-Dreamtime
DR13      -4.57 dB   -23.71 dB      0:39 07-Blue Bolero (First Reprise)
DR14      -2.83 dB   -22.18 dB      1:50 08-Peace
DR12      -3.97 dB   -21.24 dB      1:06 09-Blues For A Hip King
DR12      -2.10 dB   -17.54 dB      1:02 10-District 6
DR9       -0.69 dB   -12.03 dB      0:40 11-Tokai
DR8       -2.46 dB   -20.74 dB      0:15 12-District 6 (Reprise)
DR12      -2.48 dB   -19.64 dB      0:42 13-Pula
DR15      -2.05 dB   -22.26 dB      3:21 14-Sotho Blue
DR10      -7.42 dB   -23.69 dB      0:23 15-Blue Bolero (Second Reprise)
DR14      -2.44 dB   -21.45 dB      1:29 16-Did You Hear That Sound?
DR13      -2.42 dB   -20.28 dB      1:33 17-In The Evening
DR13      -2.29 dB   -19.36 dB      6:28 18-Once Upon A Midnight
DR14      -3.30 dB   -21.88 dB      4:53 19-The Wedding
DR13      -2.90 dB   -20.33 dB      1:06 20-Signal On The Hill
--------------------------------------------------------------------------------

Number of tracks:  20
Official DR value: DR13

Samplerate:        96000 Hz
Channels:          2
Bits per sample:   24
Bitrate:           2508 kbps
Codec:             FLAC
================================================================================
19:54
592
11:57
Заменил 16-44.1 на Hi Res 24-96