Поиск

2003 Pharoah Sanders Quartet - The Creator Has A Master Plan (2016) {Venus VHGD-180} [DSD64 ISO]

2003 Pharoah Sanders Quartet - The Creator Has A Master Plan (2016) {Venus VHGD-180} [DSD64 ISO]
Дата записи диска:
23 апреля 2003
Место записи:
Wonder Station, Tokyo, Japan
Дата переиздания диска:
28 октября 2016
Издатель (лейбл):
Номер по каталогу:
VHGD-180
Носитель:
SACD
Формат:
DSD
Тип рипа:
image
Контейнер:
ISO (*.iso)
Количество каналов:
2.0
Разрядность/ЧД:
64 (2,8 MHz/1 Bit)
Битрейт аудио:
lossless
Время звучания:
01:05:37
Наличие сканов:
да

1. I Want To Talk About You  07:17
2. Moon Rays  07:22
3. Tokyo Blues  13:10
4. Greatest Love Of All  06:31
5. The Creator Has A Master Plan  09:00
6. Welcome  11:17
7. Tina  06:20
8. It's Easy To Remember  04:59

Состав:
  • Bass – Ira Coleman
  • Drums – Joe Farnsworth
  • Engineer – Shuji Kitamura
  • Mixed By – Shuji Kitamura
  • Photography By – Mary Jane Rosen
  • Piano – William Henderson
  • Producer – Tetsuo Hara
  • Tenor Saxophone – Pharoah Sanders
Лог проверки качества
foobar2000 1.6.4 / Dynamic Range Meter 1.1.1
log date: 2021-07-17 13:58:41

--------------------------------------------------------------------------------
Analyzed: PHAROAH SANDERS QUARTET / The Creator Has A Master Plan
--------------------------------------------------------------------------------

DR         Peak         RMS     Duration Track
--------------------------------------------------------------------------------
DR6       -5.19 dB   -13.26 dB      7:13 01-I Want To Talk About You
DR6       -5.30 dB   -13.59 dB      7:19 02-Moon Rays
DR6       -4.67 dB   -12.82 dB     13:07 03-Tokyo Blues
DR6       -5.51 dB   -14.08 dB      6:26 04-Greatest Love Of All
DR6       -4.88 dB   -12.90 dB      8:59 05-The Creator Has A Master Plan
DR5       -5.33 dB   -11.49 dB     11:15 06-Welcome
DR7       -4.90 dB   -13.84 dB      6:17 07-Tina
DR7       -5.42 dB   -13.60 dB      4:59 08-It's Easy To Remember
--------------------------------------------------------------------------------

Number of tracks:  8
Official DR value: DR6

Samplerate:        2822400 Hz / PCM Samplerate: 88200 Hz
Channels:          2
Bits per sample:   1
Bitrate:           5645 kbps
Codec:             DSD64
================================================================================
Приватный:
Нет (DHT включён)
Размер:
2.66 Гб (2,852,826,561 байт) » файлов: 5
Участники:
0 раздают, 0 качают (0 участников всего)
Внешние участники:
9 раздают, 3 качают (12 участников всего) [ Обновить ]
21:40
693
Нет комментариев. Ваш будет первым!