Поиск

2003 Harold Mabern Trio - Don't Know Why (2018) {Venus VHGD-303} [DSD64 ISO]

2003 Harold Mabern Trio - Don't Know Why (2018) {Venus VHGD-303} [DSD64 ISO]
Стили:
Дата записи диска:
6 апреля 2003
Место записи:
Avatar Studios, New York City, NY, USA
Издатель (лейбл):
Номер по каталогу:
VHGD-303
Носитель:
SACD
Формат:
DSD
Тип рипа:
image
Контейнер:
ISO (*.iso)
Количество каналов:
2.0
Разрядность/ЧД:
64 (2,8 MHz/1 Bit)
Битрейт аудио:
lossless
Время звучания:
00:58:13
Наличие сканов:
да

Треклист:

01. Edward Lee  06:24
02. Dance With Me  06:43
03. My Favorite Things  05:23
04. Don't Know Why  04:44
05. Dreamy  06:32
06. Cabu  06:16
07. The Surrey With The Fringe In Top  06:19
08. Nightlife In Tokyo  06:14
09. Blues For David  05:05
10. My Shining Hour  04:33

Состав:
  • Bass – Nat Reeves
  • Drums – Joe Farnsworth
  • Engineer – Jim Anderson
  • Mastered By – Shuji Kitamura, Tetsuo Hara
  • Mixed By – Shuji Kitamura, Tetsuo Hara
  • Piano – Harold Mabern
  • Producer – Tetsuo Hara, Todd Barkan
Лог проверки качества
foobar2000 1.6.2 / Замер динамического диапазона (DR) 1.1.1
Дата отчёта:  2020-12-21 01:17:48

--------------------------------------------------------------------------------
Анализ:   HAROLD MABERN TRIO / Don't Know Why
--------------------------------------------------------------------------------

DR         Пики         RMS           Продолжительность трека
--------------------------------------------------------------------------------
DR7       -3.98 дБ   -12.32 дБ      6:24 01-Edward Lee
DR7       -3.70 дБ   -11.75 дБ      6:43 02-Dance With Me
DR7       -3.71 дБ   -11.67 дБ      5:23 03-My Favorite Things
DR7       -3.87 дБ   -11.83 дБ      4:44 04-Don't Know Why
DR8       -4.03 дБ   -14.22 дБ      6:32 05-Dreamy
DR7       -3.69 дБ   -12.27 дБ      6:16 06-Cabu
DR7       -3.64 дБ   -12.85 дБ      6:19 07-The Surry With The Fringe On Top
DR7       -3.72 дБ   -11.47 дБ      6:14 08-Nightlife In Tokyo
DR7       -4.04 дБ   -12.98 дБ      5:05 09-Blues For David
DR7       -3.94 дБ   -12.25 дБ      4:33 10-My Shining Hour
--------------------------------------------------------------------------------

Количество треков: 10
Реальные значения DR: DR7

Частота:  2822400 Гц / Частота PCM: 352800 Гц
Каналов:  2
Разрядность:   1
Битрейт:  5645 кбит/с
Кодек:   DSD64
================================================================================
По всем вопросам пишите личное сообщение пользователю M0p94ok.
00:11
291
Нет комментариев. Ваш будет первым!