Поиск

1998 Phil Woods - Chasin The Bird (2018) {Venus VHGD-276} [DSD64 ISO]

1998 Phil Woods - Chasin The Bird (2018) {Venus VHGD-276} [DSD64 ISO]
Стили:
Дата записи диска:
13 октября - 15 октября 1997
Издатель (лейбл):
Номер по каталогу:
VHGD-276
Носитель:
SACD
Формат:
DSD
Тип рипа:
image
Контейнер:
ISO (*.iso)
Количество каналов:
2.0
Разрядность/ЧД:
64 (2,8 MHz/1 Bit)
Битрейт аудио:
lossless
Время звучания:
00:49:37
Наличие сканов:
да
Треклист:

1. Chasin' the Bird  07:31
2. Israel  06:19
3. Everything Happens to Me  06:44
4. Autumn Thieves  07:12
5. Charlie's Wig  05:11
6. Tribute to Blue  07:48
7. Clinicology  08:19

Состав:
  • Bill Charlap    Piano
  • Steve Gilmore    Bass
  • Bill Goodwin    Drums
  • Tetsuo Hara    Mastering, Producer
  • Kent Heckman    Engineer
  • Brian Lynch    Composer, Trumpet
  • Phil Woods    Composer, Leader, Sax (Alto)
Лог проверки качества
foobar2000 1.6.4 / Dynamic Range Meter 1.1.1
log date: 2021-07-20 21:14:36

--------------------------------------------------------------------------------
Analyzed: PHIL WOODS / Chasin' The Bird
--------------------------------------------------------------------------------

DR         Peak         RMS     Duration Track
--------------------------------------------------------------------------------
DR8       -4.14 dB   -14.41 dB      7:36 01-Chasin' The Bird
DR9       -4.15 dB   -15.62 dB      6:25 02-Israel
DR9       -4.30 dB   -16.87 dB      6:49 03-Everything Happens To Me
DR9       -4.32 dB   -16.83 dB      7:17 04-Autumn Thieves
DR9       -4.26 dB   -15.65 dB      5:17 05-Cherlie's Wig
DR10      -4.09 dB   -17.50 dB      7:54 06-Tribute To Blue
DR9       -4.15 dB   -15.12 dB      8:19 07-Clinicology
--------------------------------------------------------------------------------

Number of tracks:  7
Official DR value: DR9

Samplerate:        2822400 Hz / PCM Samplerate: 88200 Hz
Channels:          2
Bits per sample:   1
Bitrate:           5645 kbps
Codec:             DSD64
================================================================================
По всем вопросам пишите личное сообщение пользователю M0p94ok.
20:27
246
Нет комментариев. Ваш будет первым!