Поиск

1999 Russell Malone Quartet - Wholly Cats (2017) {Venus VHGD-264} [DSD64 ISO]

1999 Russell Malone Quartet - Wholly Cats (2017) {Venus VHGD-264} [DSD64 ISO]
Стили:
Дата записи диска:
18 июля - 19 июля 1995
Место записи:
Clinton Studio "A", New York City, NY, USA
Дата издания диска:
20 декабря 2017
Издатель (лейбл):
Номер по каталогу:
VHGD-264
Носитель:
SACD
Формат:
DSD
Тип рипа:
image
Контейнер:
ISO (*.iso)
Количество каналов:
2.0
Разрядность/ЧД:
64 (2,8 MHz/1 Bit)
Битрейт аудио:
lossless
Время звучания:
01:03:44
Наличие сканов:
да

Треклист:

1. Wholly Cats  07:56
2. I Concentrate On You  10:20
3. Carousel  06:54
4. Swing Low, Sweet Chariot  02:33
5. Off The Top  10:33
6. Four In One  07:43
7. After All  06:13
8. Chitlin Blues  07:40
9. Yesterdays  03:52

Состав:
  • Bass – Rodney Whitaker
  • Drums – Yoron Israel
  • Electric Guitar – Russell Malone
  • Liner Notes – Takao Ogawa
  • Mastered By – Shuji Kitamura, Tetsuo Hara
  • Piano – Larry Willis
  • Producer – Tetsuo Hara
  • Recorded By, Mixed By – Mike Krowiak
Лог проверки качества
foobar2000 1.6.4 / Dynamic Range Meter 1.1.1
log date: 2021-07-20 21:33:07

--------------------------------------------------------------------------------
Analyzed: RUSSELL MALONE QUARTET / Wholly Cats
--------------------------------------------------------------------------------

DR         Peak         RMS     Duration Track
--------------------------------------------------------------------------------
DR8       -4.84 dB   -14.82 dB      7:56 01-Wholly Cats
DR8       -4.93 dB   -16.26 dB     10:20 02-I Concentrate On You
DR8       -5.16 dB   -16.16 dB      6:54 03-Carousel
DR9       -5.62 dB   -16.69 dB      2:33 04-Swing Low, Sweet Chariot
DR7       -4.87 dB   -15.15 dB     10:33 05-Off The Top
DR7       -5.02 dB   -14.04 dB      7:43 06-Four In One
DR9       -5.17 dB   -17.73 dB      6:13 07-After All
DR9       -5.76 dB   -17.82 dB      7:40 08-Chitlin Blues
DR8       -6.41 dB   -17.38 dB      3:52 09-Yesterdays
--------------------------------------------------------------------------------

Number of tracks:  9
Official DR value: DR8

Samplerate:        2822400 Hz / PCM Samplerate: 88200 Hz
Channels:          2
Bits per sample:   1
Bitrate:           5645 kbps
Codec:             DSD64
================================================================================
Any questions - support@pro-jazz.com
To become a power user - read FAQ.
00:07
397
Нет комментариев. Ваш будет первым!