Поиск

1977 Frank Rosolino & Conte Candoli - Just Friends (2016) {MPS Classical} [24-48.2]

1977 Frank Rosolino & Conte Candoli - Just Friends (2016) {MPS Classical} [24-48.2]
Стили:
Дата переиздания диска:
23 сентября 2016
Издатель (лейбл):
Носитель:
WEB
Формат:
PCM
Тип рипа:
tracks
Контейнер:
FLAC (*.flac)
Количество каналов:
2.0
Разрядность/ЧД:
24/88,2
Битрейт аудио:
lossless
Время звучания:
00:50:01
Наличие сканов:
только обложка

Треклист:

01 - Stella by Starlight 07:46
02 - Just Friends 07:22
03 - There Is No Greater Love 09:57
04 - Well You Neednt 08:10
05 - Quiet Nights 08:53
06 - My Funny Valentine 07:53

Состав:
  • Frank Rosolino, trombone
  • Conte Candoli, trumpet
  • Rob Pronk, piano
  • Isla Eckinger, bass
  • Todd Canedy, drums
Лог проверки качества
foobar2000 1.4.3 / Dynamic Range Meter 1.1.1
log date: 2021-07-15 21:11:54

--------------------------------------------------------------------------------
Analyzed: Conte Candoli / Just Friends (Live)
--------------------------------------------------------------------------------

DR         Peak         RMS     Duration Track
--------------------------------------------------------------------------------
DR12      -3.93 dB   -18.84 dB      7:47 01-Stella by Starlight
DR12      -1.41 dB   -18.56 dB      7:22 02-Just Friends
DR14      -0.95 dB   -17.49 dB      9:58 03-There Is No Greater Love
DR13      -2.58 dB   -18.39 dB      8:11 04-Well You Needn't
DR11      -3.67 dB   -18.82 dB      8:53 05-Quiet Nights
DR13      -0.72 dB   -17.37 dB      7:54 06-My Funny Valentine
--------------------------------------------------------------------------------

Number of tracks:  6
Official DR value: DR12

Samplerate:        88200 Hz
Channels:          2
Bits per sample:   24
Bitrate:           2652 kbps
Codec:             FLAC
================================================================================
По всем вопросам пишите личное сообщение пользователю M0p94ok.
12:59
252
Нет комментариев. Ваш будет первым!