Поиск

2020 Yellowjackets & WDR Big Band - Jackets XL {Mack Avenue} [24-48]

2020 Yellowjackets & WDR Big Band - Jackets XL {Mack Avenue} [24-48]
Издатель (лейбл):
Битрейт аудио:
lossless
Доп. инфо:

Формат записи/Источник записи: [TR24][OF]
Год издания/переиздания диска: 2020
Продолжительность: 01:09:19
Наличие сканов в содержимом раздачи: Нет

Контейнер: FLAC (*.flac)
Тип рипа: tracks
Разрядность: 24/48
Количество каналов: 2.0

Источник (релизер): HIGHRESAUDIO

Лог проверки качества
foobar2000 1.4.3 / Dynamic Range Meter 1.1.1
log date: 2020-11-07 11:28:45

--------------------------------------------------------------------------------
Analyzed: Yellowjackets / Jackets XL
--------------------------------------------------------------------------------

DR         Peak         RMS     Duration Track
--------------------------------------------------------------------------------
DR12      -1.10 dB   -15.96 dB      6:31 01-Downtown
DR12      -1.10 dB   -15.64 dB      7:28 02-Dewey
DR11      -1.10 dB   -14.43 dB      5:12 03-Mile High
DR11      -1.10 dB   -14.16 dB      7:43 04-The Red Sea
DR11      -1.10 dB   -15.27 dB      8:23 05-Even Song
DR11      -1.10 dB   -13.75 dB      6:33 06-One Day
DR13      -1.10 dB   -15.99 dB      7:43 07-Tokyo Tale
DR11      -1.10 dB   -14.94 dB      5:53 08-Imperial Strut
DR11      -4.40 dB   -18.18 dB      7:36 09-Coherence
DR10      -1.10 dB   -13.12 dB      6:21 10-Revelation
--------------------------------------------------------------------------------

Number of tracks:  10
Official DR value: DR11

Samplerate:        48000 Hz
Channels:          2
Bits per sample:   24
Bitrate:           1709 kbps
Codec:             FLAC
================================================================================
No seeders - write personal message to M0p94ok. Any questions - support@pro-jazz.com.
Нет сидеров - пишите в личку M0p94ok. Есть вопросы - support@pro-jazz.com
19:03
260
Нет комментариев. Ваш будет первым!