Поиск

2020 Sílvia Pérez Cruz - Farsa (género imposible) {Universal} [24-44,1]

2020 Sílvia Pérez Cruz - Farsa (género imposible) {Universal} [24-44,1]
Дата издания диска:
1 октября 2020
Издатель (лейбл):
Битрейт аудио:
lossless

Треклист:

01 Pena Salada 02:58
02 Todas Las Madres Del Mundo 05:51
03 Mañana 02:46
04 Tres Locuras 02:17
05 Ensumo L’Abril 05:12
06 Grito Pelao 05:38
07 Estimat 02:36
08 Tango De La Vía Láctea 05:11
09 Fatherless 05:38
10 Plumita 03:29
11 Par Coeur + The Womb 04:31
12 Intemperie 03:22
13 Futuras Madres Del Mundo 01:22

Доп. инфо:

Формат записи/Источник записи: [TR24][OF]
Наличие водяных знаков: Нет
Год издания/переиздания диска: 2020
Продолжительность: 00:51:00
Наличие сканов в содержимом раздачи: Только обложка альбома
Источник (релизер): highresaudio

Контейнер: FLAC (*.flac)
Тип рипа: tracks
Разрядность: 24/44,1
Формат: PCM
Количество каналов: 2.0

Лог проверки качества
foobar2000 1.1.15 / Dynamic Range Meter 1.1.1
log date: 2020-10-02 14:51:21

--------------------------------------------------------------------------------
Analyzed: Sílvia Pérez Cruz / Farsa (género imposible)
--------------------------------------------------------------------------------

DR         Peak         RMS     Duration Track
--------------------------------------------------------------------------------
DR11      -0.45 dB   -14.78 dB      2:57 01-Pena Salada
DR11      -0.43 dB   -14.65 dB      5:51 02-Todas Las Madres Del Mundo
DR10      -0.37 dB   -15.65 dB      2:46 03-Mañana
DR11      -0.30 dB   -17.04 dB      2:20 04-Tres Locuras
DR11      -0.42 dB   -16.31 dB      5:12 05-Ensumo L’Abril
DR12      -2.51 dB   -19.36 dB      5:38 06-Grito Pelao
DR11      -1.54 dB   -16.13 dB      2:39 07-Estimat
DR10      -0.52 dB   -14.51 dB      5:11 08-Tango De La Vía Láctea
DR11      -0.49 dB   -15.79 dB      5:38 09-Fatherless
DR9       -0.47 dB   -14.03 dB      3:33 10-Plumita
DR9       -0.30 dB   -12.78 dB      4:31 11-Par Coeur + The Womb
DR10      -0.31 dB   -12.84 dB      3:22 12-Intemperie
DR12      -0.30 dB   -15.31 dB      1:22 13-Futuras Madres Del Mundo
--------------------------------------------------------------------------------

Number of tracks:  13
Official DR value: DR11

Samplerate:        44100 Hz
Channels:          2
Bits per sample:   24
Bitrate:           1401 kbps
Codec:             FLAC
================================================================================
Приватный:
Нет (DHT включён)
Размер:
484.25 Мб (507,774,834 байт) » файлов: 16
Участники:
3 раздают, 0 качают (3 участников всего)
Внешние участники:
7 раздают, 2 качают (9 участников всего) [ Обновить ]
No seeders - write personal message to M0p94ok. Any questions - support@pro-jazz.com.
Нет сидеров - пишите в личку M0p94ok. Есть вопросы - support@pro-jazz.com
18:19
166
Нет комментариев. Ваш будет первым!