Поиск

2011 Ben Williams - State Of Art {Concord Jazz} [24-88,2]

2011 Ben Williams - State Of Art {Concord Jazz} [24-88,2]
Дата записи диска:
16 июня - 17 июня 2010
Место записи:
Sear Sound, New York City, NY, USA
Дата издания диска:
28 июня 2011
Издатель (лейбл):
Номер по каталогу:
088072323414
Носитель:
WEB
Формат:
PCM
Тип рипа:
tracks+.cue
Контейнер:
APE (*.ape)
Количество каналов:
2.0
Разрядность/ЧД:
24/88,2
Битрейт аудио:
lossless
Время звучания:
01:01:44
Наличие сканов:
да
Страна-производитель диска (релиза):
USA
Релизёр (источник):
M0p94ok
Лог проверки качества
foobar2000 1.6.2 / Dynamic Range Meter 1.1.1
log date: 2021-01-02 15:57:31

--------------------------------------------------------------------------------
Analyzed: Ben Williams / State Of Art
--------------------------------------------------------------------------------

DR         Peak         RMS     Duration Track
--------------------------------------------------------------------------------
DR12      -0.10 dB   -13.07 dB      4:14 01-Home
DR11      -0.10 dB   -13.65 dB      6:31 02-Moontrane
DR11      -0.10 dB   -12.13 dB      4:32 03-The Lee Morgan Story
DR11      -0.10 dB   -13.44 dB      7:39 04-Dawn Of A New Day
DR12      -4.20 dB   -19.29 dB      1:24 05-Little Susie Intro
DR9       -0.10 dB   -12.00 dB      6:46 06-Little Susie
DR11      -0.10 dB   -12.86 dB      7:08 07-November
DR11      -0.10 dB   -13.63 dB      7:07 08-Part-Time Lover
DR11      -0.10 dB   -13.77 dB      6:02 09-Things Don't Exist
DR10      -0.10 dB   -12.44 dB      5:32 10-Mr. Dynamite
DR13      -0.10 dB   -17.32 dB      4:52 11-Moonlight In Vermont
--------------------------------------------------------------------------------

Number of tracks:  11
Official DR value: DR11

Samplerate:        88200 Hz
Channels:          2
Bits per sample:   24
Bitrate:           2674 kbps
Codec:             FLAC
================================================================================
No seeders - write personal message to M0p94ok. Any questions - support@pro-jazz.com.
Нет сидеров - пишите в личку M0p94ok. Есть вопросы - support@pro-jazz.com
17:17
233
Нет комментариев. Ваш будет первым!