Поиск

2016 Bill O'Connell & The Latin Jazz All-Stars - Heart Beat {Savant} [24-88,2]

2016 Bill O'Connell & The Latin Jazz All-Stars - Heart Beat {Savant} [24-88,2]
Стили:
Дата записи диска:
2 июня - 3 июня 2015
Место записи:
Trading 8's Music, Paramus, NJ, USA
Дата издания диска:
15 января 2016
Издатель (лейбл):
Номер по каталогу:
SCD 2154
Носитель:
WEB
Формат:
PCM
Тип рипа:
tracks+.cue
Контейнер:
APE (*.ape)
Количество каналов:
2.0
Разрядность/ЧД:
24/88,2
Битрейт аудио:
lossless
Время звучания:
00:56:33
Наличие сканов:
да
Наличие водяных знаков:
нет
Страна-производитель диска (релиза):
USA
Релизёр (источник):
M0p94ok

Треклист:

1    Vertigo    6:57
2    The Eyes Of A Child    7:37
3    Awani    5:30
4    Waters Of March    6:50
5    Tabasco    4:38
6    ESP    6:11
7    Heart-Beat    7:11
8    Wake Up    4:31
9    Peace On Earth    7:08

Лог проверки качества
foobar2000 1.6.2 / Dynamic Range Meter 1.1.1
log date: 2021-01-02 20:38:30

--------------------------------------------------------------------------------
Analyzed: Bill O'Connell / Heart Beat
--------------------------------------------------------------------------------

DR         Peak         RMS     Duration Track
--------------------------------------------------------------------------------
DR8       -0.71 dB   -11.22 dB      6:57 01-Vertigo
DR10      -0.71 dB   -13.13 dB      7:38 02-The Eyes of a Child
DR9       -0.71 dB   -11.56 dB      5:31 03-Awani
DR10      -0.71 dB   -13.30 dB      6:50 04-Waters of March
DR9       -0.71 dB   -11.15 dB      4:39 05-Tabasco
DR9       -0.71 dB   -11.37 dB      6:11 06-ESP
DR10      -0.71 dB   -12.73 dB      7:12 07-Heart-Beat
DR10      -0.71 dB   -12.10 dB      4:32 08-Wake Up
DR8       -0.71 dB   -12.40 dB      7:08 09-Peace on Earth
--------------------------------------------------------------------------------

Number of tracks:  9
Official DR value: DR9

Samplerate:        88200 Hz
Channels:          2
Bits per sample:   24
Bitrate:           2787 kbps
Codec:             FLAC
================================================================================
Приватный:
Нет (DHT включён)
Размер:
1.12 Гб (1,199,259,325 байт) » файлов: 12
Участники:
4 раздают, 0 качают (4 участников всего)
Внешние участники:
--- [ Обновить ]
For power users only: no seeders - write to support@pro-jazz.com. Для power user: нет сидеров - пишите на support@pro-jazz.com.
21:57
137
Нет комментариев. Ваш будет первым!