Поиск

2020 Pierre de Bethmann Trio - Essais, Volume 4 {ALEA} [24-96]

2020 Pierre de Bethmann Trio - Essais, Volume 4 {ALEA} [24-96]
Стили:
Дата записи диска:
7 сентября - 8 сентября 2019
Место записи:
Studio Recall, Pompignan, France
Дата издания диска:
22 ноября 2020
Номер по каталогу:
ALEA013
Носитель:
WEB
Формат:
PCM
Тип рипа:
tracks+.cue
Контейнер:
APE (*.ape)
Количество каналов:
2.0
Разрядность/ЧД:
24/96
Битрейт аудио:
lossless
Время звучания:
00:47:08
Наличие сканов:
web
Страна-производитель диска (релиза):
France
Релизёр (источник):
M0p94ok
Лог проверки качества
foobar2000 1.6.2 / Dynamic Range Meter 1.1.1
log date: 2021-01-03 08:25:50

--------------------------------------------------------------------------------
Analyzed: Pierre de Bethmann Trio / Essais, Volume 4
--------------------------------------------------------------------------------

DR         Peak         RMS     Duration Track
--------------------------------------------------------------------------------
DR11      -0.01 dB   -13.39 dB      8:17 01-Deluge
DR9       -0.01 dB   -12.10 dB      4:57 02-Anthropology
DR10      -0.01 dB   -14.08 dB      6:55 03-Three Blind Mice
DR12      -0.01 dB   -14.11 dB      3:23 04-Ma Bel
DR8       -0.01 dB   -10.87 dB      4:37 05-Saint Thomas
DR12      -0.01 dB   -14.32 dB      5:55 06-This Never Happened Before
DR7       -0.01 dB   -10.01 dB      6:43 07-Think of One
DR9       -0.01 dB   -13.05 dB      6:26 08-Moreira
--------------------------------------------------------------------------------

Number of tracks:  8
Official DR value: DR10

Samplerate:        96000 Hz
Channels:          2
Bits per sample:   24
Bitrate:           2682 kbps
Codec:             FLAC
================================================================================
No seeders - write personal message to M0p94ok. Any questions - support@pro-jazz.com.
Нет сидеров - пишите в личку M0p94ok. Есть вопросы - support@pro-jazz.com
00:56
184
Нет комментариев. Ваш будет первым!