Поиск

2020 Alexander von Schlippenbach – Slow Pieces for Aki {Intakt} [24-96]

2020 Alexander von Schlippenbach – Slow Pieces for Aki {Intakt} [24-96]
Издатель (лейбл):
Битрейт аудио:
lossless
Доп. инфо:

Формат записи/Источник записи: [TR24][OF]
Наличие водяных знаков: Нет
Год издания: 2020
Продолжительность: 00:52:08
Наличие сканов в содержимом раздачи: Только обложка
Источник (релизер): qobuz
Контейнер: FLAC (*.flac)
Тип рипа: tracks
Разрядность: 24/96
Формат: PCM
Количество каналов: 2.0

Пианист, два дня в студии, один за роялем. Отступление в Цюрихе. Акцент делается на сейчас, запись идет. Срок подготовки к новым композициям: около года. Настроиться на музыку: всю жизнь. Александр фон Шлиппенбах, «Медленные пьесы для Аки», акцент делается на слове «медленный», а не на повторном открытии медлительности, а на новом открытии медлительности - посвящен его жене Аки Такасе.

В медленных пьесах, коротких пьесах, композициях, в которых каждая отдельная нота требует высочайшего внимания, виртуозность переходит от чисто технических к самим нотам, избегая всех ненужных вещей. Звуки, которые светятся в темноте и образуют знаки зодиака. Это не только джаз и новая музыка, которые появляются издалека, но также классическая и романтическая музыка, всегда находящая отражение в личности, жизни и опыте игры Александра фон Шлиппенбаха.

Лог проверки качества
foobar2000 1.3.16 / Dynamic Range Meter 1.1.1
log date: 2020-10-18 12:51:48

––––––––––––––––––––––––––––––––––––––––
Analyzed: Alexander von Schlippenbach / Slow Pieces for Aki
––––––––––––––––––––––––––––––––––––––––

DR Peak RMS Duration Track
––––––––––––––––––––––––––––––––––––––––
DR16 -5.80 dB -27.15 dB 2:50 01-Frühling im Schnee
DR15 -3.11 dB -24.51 dB 2:16 02-Improvisation I
DR15 -0.31 dB -20.95 dB 4:29 03-Torso
DR15 -0.37 dB -20.97 dB 1:47 04-Improvisation II
DR12 -1.16 dB -16.79 dB 1:27 05-Improvisation III
DR15 -1.40 dB -23.12 dB 2:37 06-Tell You
DR14 -5.03 dB -25.69 dB 2:19 07-Improvisation IV
DR14 -3.02 dB -22.08 dB 4:50 08-Cleo
DR14 -0.67 dB -18.89 dB 3:01 09-Improvisation V
DR15 -4.37 dB -24.46 dB 2:46 10-Naniga nandemo
DR15 -0.89 dB -20.81 dB 1:59 11-Improvisation VI
DR16 -0.49 dB -21.19 dB 1:49 12-A-Blues
DR15 -3.27 dB -21.64 dB 2:32 13-Blues B
DR14 -0.41 dB -18.25 dB 1:14 14-Improvisation VII
DR15 -1.08 dB -22.60 dB 3:34 15-I Told You
DR14 -0.31 dB -18.29 dB 1:26 16-Improvisation VIII
DR15 -0.31 dB -18.59 dB 2:22 17-Improvisation IX
DR17 -2.04 dB -24.64 dB 2:11 18-Dydo
DR13 -0.83 dB -19.16 dB 1:14 19-Improvisation X
DR15 -2.36 dB -24.03 dB 2:42 20-Frage nicht
DR14 -2.19 dB -21.13 dB 2:43 21-Zycado
––––––––––––––––––––––––––––––––––––––––

Number of tracks: 21
Official DR value: DR15

Samplerate: 96000 Hz
Channels: 2
Bits per sample: 24
Bitrate: 4616 kbps
Codec: FLAC
================================================================================
No seeders - write personal message to M0p94ok. Any questions - support@pro-jazz.com.
Нет сидеров - пишите в личку M0p94ok. Есть вопросы - support@pro-jazz.com
01:27
159
Нет комментариев. Ваш будет первым!