Поиск

2020 Patrick Deltenre & Ivan Paduart - Ear We Are {Igloo} [24-88,2]

2020 Patrick Deltenre & Ivan Paduart - Ear We Are {Igloo} [24-88,2]
Стили:
Дата записи диска:
29 мая - 30 мая 2020
Место записи:
Wazif Studio, Ottignies, Belgium
Дата издания диска:
2 октября 2020
Битрейт аудио:
lossless

Треклист:

01. Ear We Are (Paduart-Deltenre) - 4:08
02. Gift to a Friend (Paduart-Deltenre) - 5:19
03. Tomorrow (Paduart) - 3:32
04. Endless Winter (Paduart) - 6:13
05. Bea (Paduart-Deltenre) - 4:10
06. Virgo (Paduart-Deltenre) - 5:27
07. For Jaydee (Paduart-Deltenre) - 3:56
08. Patience (Paduart) - 4:06
09. Taking Off (Paduart) - 4:32
10. Crystal Clear (Paduart) - 4:18
11. Staying Home (Paduart-Deltenre) - 5:02
12. Bea (Reprise) (Deltenre) - 0:54

Доп. инфо:

Формат записи/Источник записи: [TR24][OF]
Наличие водяных знаков: Нет
Год издания/переиздания диска: 2020
Издатель (лейбл): Igloo
Продолжительность: 00:51:37
Наличие сканов в содержимом раздачи: Только обложка альбома

Контейнер: FLAC (*.flac)
Тип рипа: tracks
Разрядность: 24/88,2
Формат: PCM
Количество каналов: 2.0

Источник (релизер): qobuz

Лог проверки качества
foobar2000 1.6.2 / Dynamic Range Meter 1.1.1
log date: 2020-11-17 18:54:05

--------------------------------------------------------------------------------
Analyzed: Patrick Deltenre & Ivan Paduart / Ear We Are
--------------------------------------------------------------------------------

DR         Peak         RMS     Duration Track
--------------------------------------------------------------------------------
DR10      -0.79 dB   -13.41 dB      4:08 01-Ear We Are
DR10      -0.90 dB   -14.03 dB      5:19 02-Gift to a Friend
DR11      -0.75 dB   -13.47 dB      3:32 03-Tomorrow
DR9       -1.12 dB   -13.08 dB      6:13 04-Endless Winter
DR10      -0.73 dB   -13.76 dB      4:10 05-Bea
DR11      -0.90 dB   -13.92 dB      5:27 06-Virgo
DR10      -0.97 dB   -12.88 dB      3:56 07-For Jaydee
DR10      -0.69 dB   -14.09 dB      4:06 08-Patience
DR11      -1.03 dB   -14.39 dB      4:32 09-Taking Off
DR10      -0.65 dB   -14.86 dB      4:18 10-Crystal Clear
DR10      -0.66 dB   -13.10 dB      5:02 11-Staying Home
DR10      -2.33 dB   -16.00 dB      0:54 12-Bea (Reprise)
--------------------------------------------------------------------------------

Number of tracks:  12
Official DR value: DR10

Samplerate:        88200 Hz
Channels:          2
Bits per sample:   24
Bitrate:           2162 kbps
Codec:             FLAC
================================================================================
Приватный:
Нет (DHT включён)
Размер:
838.43 Мб (879,157,807 байт) » файлов: 16
Участники:
2 раздают, 1 качают (3 участников всего)
Внешние участники:
5 раздают, 2 качают (7 участников всего) [ Обновить ]
Скорость:
1.07 Мб/c 0/c
No seeders - write personal message to M0p94ok. Нет сидеров - пишите в личку M0p94ok.
18:30
137
Нет комментариев. Ваш будет первым!