Поиск

2017 Danny Grissett - Remembrance {Savant S2165} [24-96]

2017 Danny Grissett - Remembrance {Savant S2165} [24-96]
Стили:
Дата записи диска:
19 апреля 2017
Место записи:
The Systems Two Recording Studios, Brooklyn, NY, USA
Издатель (лейбл):
Номер по каталогу:
SCD 2165
Носитель:
WEB
Формат:
PCM
Тип рипа:
tracks+.cue
Контейнер:
APE (*.ape)
Количество каналов:
2.0
Разрядность/ЧД:
24/96
Битрейт аудио:
lossless
Время звучания:
00:55:05
Наличие сканов:
да
Страна-производитель диска (релиза):
USA
Релизёр (источник):
M0p94ok

This album is available on our DC++ hub: dc.pro-jazz.com
Этот альбом доступен на нашем DC++ хабе: dc.pro-jazz.com

Треклист:

01. Woody'n You (5:13)
02. Lament for Bobby (6:44)
03. Prelude to a Kiss (5:05)
04. Gallop's Gallop (5:28)
05. Renatus (6:09)
06. Just Enough (5:49)
07. A Friend Indeed (7:25)
08. Digital Big Foot (7:50)
09. Detour Ahead (5:22)

Состав:
  • Danny Grissett — piano, Fender Rhodes
  • Dayna Stephens (#1-8) — soprano saxophone, tenor saxophone
  • Vicente Archer — bass
  • Bill Stewart — drums
Лог проверки качества
foobar2000 1.6.2 / Dynamic Range Meter 1.1.1
log date: 2021-01-03 20:03:02

--------------------------------------------------------------------------------
Analyzed: Danny Grissett / Remembrance
--------------------------------------------------------------------------------

DR         Peak         RMS     Duration Track
--------------------------------------------------------------------------------
DR9       -0.60 dB   -11.69 dB      5:11 01-Woody'n You
DR10      -0.60 dB   -12.02 dB      6:42 02-Lament for Bobby
DR10      -0.60 dB   -12.95 dB      5:03 03-Prelude to a Kiss
DR11      -0.60 dB   -12.93 dB      5:26 04-Gallop's Gallop
DR9       -0.60 dB   -11.73 dB      6:07 05-Renatus
DR10      -0.60 dB   -13.57 dB      5:47 06-Just Enough
DR10      -0.60 dB   -11.94 dB      7:23 07-A Friend Indeed
DR11      -0.60 dB   -13.94 dB      7:48 08-Digital Big Foot
DR11      -0.60 dB   -13.80 dB      5:22 09-Detour Ahead
--------------------------------------------------------------------------------

Number of tracks:  9
Official DR value: DR10

Samplerate:        96000 Hz
Channels:          2
Bits per sample:   24
Bitrate:           2983 kbps
Codec:             FLAC
================================================================================
22:25
598
Нет комментариев. Ваш будет первым!