Вы используете незарегистрированную версию компонента "Вкладки"!

Поиск

1968 Walt Dickerson - Vibes in Motion (2020) {Audio Fidelity} [24-48]

1968 Walt Dickerson - Vibes in Motion (2020) {Audio Fidelity} [24-48]
Дата записи диска:
21 марта 1963 - 5 марта 1964
Место записи:
Gotham Studios, NYC, USA
Издатель (лейбл):
Номер по каталогу:
AFSD 6217
Битрейт аудио:
lossless
Доп. инфо:

Формат записи/Источник записи: [TR24][OF]
Издание: Remastered
Год издания/переиздания диска: 1968/2020
Продолжительность: 00:30:19
Наличие сканов в содержимом раздачи: Нет

Контейнер: FLAC (*.flac)
Тип рипа: tracks
Разрядность: 24/48
Количество каналов: 2.0

Источник (релизер): HIGHRESAUDIO

Лог проверки качества
foobar2000 1.4.3 / Dynamic Range Meter 1.1.1
log date: 2020-11-10 19:07:18

--------------------------------------------------------------------------------
Analyzed: Walt Dickerson / Vibes in Motion
--------------------------------------------------------------------------------

DR         Peak         RMS     Duration Track
--------------------------------------------------------------------------------
DR9       -1.17 dB   -13.10 dB      2:47 01-Theme from Lawrence of Arabia
DR9       -1.18 dB   -13.53 dB      5:10 02-That Is the Desert
DR9       -1.21 dB   -12.34 dB      3:53 03-Motif from Overture, Pt. 1
DR11      -1.18 dB   -15.63 dB      3:48 04-Motif from Overture, Pt. 2
DR9       -1.17 dB   -12.70 dB      2:20 05-Arrival at Auda's Camp
DR10      -1.17 dB   -13.74 dB      4:37 06-Nefud Mirage, Pt. 1
DR12      -1.18 dB   -17.41 dB      4:19 07-Nefud Mirage, Pt. 2
DR10      -1.17 dB   -13.30 dB      3:28 08-The Voice of the Guns
--------------------------------------------------------------------------------

Number of tracks:  8
Official DR value: DR10

Samplerate:        48000 Hz
Channels:          2
Bits per sample:   24
Bitrate:           1755 kbps
Codec:             FLAC
================================================================================
Any questions - support@pro-jazz.com. Есть вопросы - support@pro-jazz.com
00:29
222
Нет комментариев. Ваш будет первым!