Поиск

2013 Delicious Date - Next {Chaos} [24-44,1]

2013 Delicious Date - Next {Chaos} [24-44,1]
Дата издания диска:
12 апреля 2013
Номер по каталогу:
1084395
Носитель:
WEB
Формат:
PCM
Тип рипа:
tracks+.cue
Контейнер:
APE (*.ape)
Количество каналов:
2.0
Разрядность/ЧД:
24/44,1
Битрейт аудио:
lossless
Время звучания:
00:50:08
Наличие сканов:
web
Релизёр (источник):
M0p94ok
Лог проверки качества
foobar2000 1.6.2 / Dynamic Range Meter 1.1.1
log date: 2021-01-04 19:47:43

--------------------------------------------------------------------------------
Analyzed: Delicious Date / Next
--------------------------------------------------------------------------------

DR         Peak         RMS     Duration Track
--------------------------------------------------------------------------------
DR10      -0.33 dB   -11.50 dB      4:14 01-Mr. G
DR10      -0.34 dB   -12.09 dB      4:40 02-Broken Day
DR11      -0.33 dB   -12.15 dB      4:11 03-Cómo Te Llamas
DR9       -0.33 dB   -11.09 dB      3:57 04-Flashlights
DR11      -0.33 dB   -13.20 dB      4:15 05-So Sad
DR9       -0.17 dB   -11.15 dB      3:49 06-Moliet et Blues
DR11      -0.33 dB   -13.39 dB      3:16 07-Suave
DR11      -0.33 dB   -12.30 dB      4:19 08-Arrival
DR12      -0.34 dB   -13.70 dB      3:30 09-Touch
DR9       -0.33 dB   -12.60 dB      6:18 10-Reminiscence
DR10      -0.13 dB   -11.68 dB      4:35 11-Bach
DR11      -0.33 dB   -12.25 dB      3:12 12-Sound of Delicious Date
--------------------------------------------------------------------------------

Number of tracks:  12
Official DR value: DR10

Samplerate:        44100 Hz
Channels:          2
Bits per sample:   24
Bitrate:           1606 kbps
Codec:             FLAC
================================================================================
No seeders - write personal message to M0p94ok. Any questions - support@pro-jazz.com.
Нет сидеров - пишите в личку M0p94ok. Есть вопросы - support@pro-jazz.com
21:07
163
Нет комментариев. Ваш будет первым!