Поиск

1996 Billy Blanco e Radames Gnattali - Doutores em Samba (2019) {RevOla} [24-44,1]

1996 Billy Blanco e Radames Gnattali - Doutores em Samba (2019) {RevOla} [24-44,1]
Дата переиздания диска:
1 апреля 2019
Издатель (лейбл):
Носитель:
WEB
Формат:
PCM
Тип рипа:
tracks+.cue
Контейнер:
APE (*.ape)
Количество каналов:
2.0
Разрядность/ЧД:
24/44,1
Битрейт аудио:
lossless
Время звучания:
00:31:45
Наличие сканов:
web
Наличие водяных знаков:
нет
Страна-производитель диска (релиза):
USA
Релизёр (источник):
M0p94ok

Треклист:

01. Samba de Doutor (Remastered)  03:05
02. Obrigado Excelencia (Remastered)  02:26
03. Camelo (Remastered)  02:57
04. O Amor e Cego (Remastered)  01:53
05. Minha Vida Com Tereza (Remastered)  02:15
06. Coringa (Remastered)  01:56
07. Na Janela Do Mundo (Remastered)  02:29
08. Feiura Nao e Nada (Remastered)  01:57
09. Se Papai Fosse Eleito (Remastered)  02:15
10. Viva Meu Samba (Remastered)  02:40
11. Estatuto de Boate (Remastered)  02:02
12. Vaca De Presepio (Remastered)  02:44
13. Requerimento (Remastered)  03:06

Доп. инфо:

В 1958 году певец Пауло Маркес записал свой LP Doutor em samba для Колумбии в замечательной команде: Радамес Гнаттали (аранжировки / фортепиано), Чихиньо До Акордеон (аккордеон), Зе Менезеш (гитара), Видаль (бас), Лучано Перроне ( барабаны), Zé Bodega (саксофон) и Columbia Orchestra под управлением Гнаттали. После записи инженер Умберто Контарди убедил Билли Бланко вложить свой голос в записанные аранжировки. Проект так и не был реально издан, так как это были времена сильных, мощных голосов бельканто, к которым Бланко явно не принадлежал. Но Контарди хранил записанные треки 37 лет, и они представлены на этих записях после критического цифрового ремастеринга. С забавными, непочтительными текстами, которые резко контрастируют со строгими, но расслабленными аранжировками, в основном подшучивая над политиками, известными и влиятельными общественными деятелями (Чато), интерес этого альбома не ограничивается этим, представляя хорошую возможность для знакомства с музыкой, аранжировками, инструментами и оркестровками Бразилии всё ещё не затронутыми стандартами босановы.

Лог проверки качества
foobar2000 1.3.16 / Dynamic Range Meter 1.1.1
log date: 2019-04-10 01:39:30

--------------------------------------------------------------------------------
Analyzed: Billy Blanco e Radames Gnattali / Doutores em Samba
--------------------------------------------------------------------------------

DR         Peak         RMS     Duration Track
--------------------------------------------------------------------------------
DR13      -0.78 dB   -14.81 dB      3:06 01-Samba de Doutor
DR13      -0.47 dB   -15.20 dB      2:27 02-Obrigado Excelencia
DR13      -0.38 dB   -14.90 dB      2:57 03-Camelo
DR13      -0.59 dB   -15.11 dB      1:54 04-O Amor e Cego
DR13       0.00 dB   -15.50 dB      2:15 05-Minha Vida Com Tereza
DR11      -1.17 dB   -14.97 dB      1:57 06-Coringa
DR13      -0.93 dB   -15.11 dB      2:29 07-Na Janela Do Mundo
DR14      -0.39 dB   -15.64 dB      1:57 08-Feiura Nao e Nada
DR12      -0.46 dB   -15.03 dB      2:16 09-Se Papai Fosse Eleito
DR13      -1.03 dB   -15.24 dB      2:41 10-Viva Meu Samba
DR12      -0.46 dB   -14.99 dB      2:02 11-Estatuto de Boate
DR12      -0.55 dB   -14.77 dB      2:44 12-Vaca De Presepio
DR14       0.00 dB   -15.16 dB      3:06 13-Requerimento
--------------------------------------------------------------------------------

Number of tracks:  13
Official DR value: DR13

Samplerate:        44100 Hz
Channels:          2
Bits per sample:   24
Bitrate:           1467 kbps
Codec:             FLAC
================================================================================
Приватный:
Нет (DHT включён)
Размер:
327.22 Мб (343,116,096 байт) » файлов: 15
Участники:
3 раздают, 2 качают (5 участников всего)
Внешние участники:
--- [ Обновить ]
No seeders - write personal message to M0p94ok. Any questions - support@pro-jazz.com.
Нет сидеров - пишите в личку M0p94ok. Есть вопросы - support@pro-jazz.com
16:33
170
Нет комментариев. Ваш будет первым!