Поиск

2020 Cotatcha Orchestra – Bigbandova Elektronika {Big Round} [24-96]

2020 Cotatcha Orchestra – Bigbandova Elektronika {Big Round} [24-96]
Стили:
Битрейт аудио:
lossless

Треклист:

1. Sen Sei  05:24
2. Billy's Pilgrimage  07:37
3. Sarda(napalm)  03:21
4. (Sarda)napalm  02:58
5. Modal Song  08:05
6. Gloryhole Waltz  05:51
7. Nerf Nitro Throttle Shot Blitz  07:59
8. For Ben  04:14
9. A Very Old Lady Driving a Ferrari  05:18

Доп. инфо:

Формат записи/Источник записи: [TR24][OF]
Наличие водяных знаков: Нет
Год издания: 2020
Издатель (лейбл): Big Round Records
Продолжительность: 00:50:50
Наличие сканов в содержимом раздачи: Только обложка
Источник (релизер): qobuz
Контейнер: FLAC (*.flac)
Тип рипа: tracks
Разрядность: 24/96
Формат: PCM
Количество каналов: 2.0

Лог проверки качества
foobar2000 1.6.2 / Dynamic Range Meter 1.1.1
log date: 2020-11-15 21:50:37

––––––––––––––––––––––––––––––––––––––––
Analyzed: Cotatcha Orchestra / Bigbandová elektronika
––––––––––––––––––––––––––––––––––––––––

DR Peak RMS Duration Track
––––––––––––––––––––––––––––––––––––––––
DR9 -1.37 dB -13.77 dB 5:25 01-Sen Sei
DR11 -1.37 dB -15.95 dB 7:37 02-Billy's Pilgrimage
DR12 -4.83 dB -21.70 dB 3:21 03-Sarda(napalm)
DR8 -1.37 dB -10.96 dB 2:59 04-(Sarda)napalm
DR9 -1.37 dB -14.52 dB 8:06 05-Modal Song
DR12 -1.37 dB -17.18 dB 5:51 06-Gloryhole Waltz
DR9 -1.37 dB -14.26 dB 8:00 07-Nerf Nitro Throttle Shot Blitz
DR11 -1.37 dB -15.93 dB 4:14 08-For Ben
DR12 -1.37 dB -15.09 dB 5:18 09-A Very Old Lady Driving a Ferrari
––––––––––––––––––––––––––––––––––––––––

Number of tracks: 9
Official DR value: DR10

Samplerate: 96000 Hz
Channels: 2
Bits per sample: 24
Bitrate: 3039 kbps
Codec: FLAC
================================================================================
Приватный:
Да (DHT отключён)
Размер:
1.07 Гб (1,146,817,263 байт) » файлов: 10
Участники:
0 раздают, 0 качают (0 участников всего)
Внешние участники:
10 раздают, 3 качают (13 участников всего) [ Обновить ]
No seeders - write personal message to M0p94ok. Нет сидеров - пишите в личку M0p94ok.
20:21
109
Нет комментариев. Ваш будет первым!