Поиск

2018 Michael Formanek Elusion Quartet - Time Like This {Intakt 313} [24-96]

2018 Michael Formanek Elusion Quartet - Time Like This {Intakt 313} [24-96]
Стили:
Дата записи диска:
14 февраля 2018
Место записи:
Oktaven Audio, Mount Vernon, NY, USA
Дата издания диска:
15 октября 2018
Издатель (лейбл):
Номер по каталогу:
313
Носитель:
WEB
Формат:
PCM
Тип рипа:
tracks+.cue
Контейнер:
APE (*.ape)
Количество каналов:
2.0
Разрядность/ЧД:
24/96
Битрейт аудио:
lossless
Время звучания:
00:58:52
Наличие сканов:
web
Наличие водяных знаков:
нет
Страна-производитель диска (релиза):
Switzerland
Релизёр (источник):
M0p94ok

Треклист:

1. Down 8 up 5  09:14
2. Culture of None  06:27
3. A Fine Mess  06:22
4. This May Get Ugly  11:53
5. The Soul Goodbye  09:35
6. That Was Then  05:47
7. The New Normal  09:22

Доп. инфо:

Одним из маркеров творчества и универсальности басиста Майкла Форманека является ряд выдающихся музыкантов нескольких поколений, с которыми он работал. Ещё подростком в 1970-х он гастролировал с барабанщиком Тони Уильямсом (Tony Williams) и саксофонистом Джо Хендерсоном (Joe Henderson). Начиная с 80-х он играл подолгу со Стэном Гетцем (Stan Getz), Фредом Хершем (Fred Hersch) и Фредди Хаббардом (Freddie Hubbard). Форманек также является композитором и руководителем различных групп. Его основной инструмент для записи и международных гастролей - это его знаменитый квартет с Тимом Берном (Tim Berne), Крейгом Таборном (Craig Taborn) и Джеральдом Кливером (Gerald Cleaver). Его случайные группы включают в себя ансамбль «Колосс», состоящий из 18 человек, и многих нью-йоркских импровизаторов, с которыми он работает.

Собирая Elusion Quartet, интерпретируя свою музыку с этими конкретными музыкантами, Майкл Форманек говорит, что искал «более непосредственной связи с эмоциями: моими, их эмоциями и эмоциями слушателя». Хэнк Штимер пишет в примечаниях к буклету: «Если сосредоточиться на деталях Time Like This, становится ясно, что такого рода эмоциональная непосредственность
пронизывает альбом. Вы слышите это в плавном балетном соло Криса Дэвиса (Kris Davis) в «A Fine Mess»; в завываниях тенора Тони Малаби (Tony Malaby) в «Прощай, душа»; в хриплых мелодиях Чеса Смита (Ches Smith) на «That Was Then»; или уравновешенные, жилистые реплики лидера в теме "Culture of None". Неуловимый? Конечно. Но как показывает этот альбом, при правильных условиях, с правильным персоналом, он всё ещё существует».

Лог проверки качества
foobar2000 1.6.2 / Dynamic Range Meter 1.1.1
log date: 2021-01-06 12:11:10

--------------------------------------------------------------------------------
Analyzed: Michael Formanek Elusion Quartet / Time like This
--------------------------------------------------------------------------------

DR         Peak         RMS     Duration Track
--------------------------------------------------------------------------------
DR11      -3.42 dB   -17.73 dB      9:14 01-Down 8 Up 5
DR12      -1.02 dB   -16.57 dB      6:31 02-Culture of None
DR11      -2.10 dB   -17.44 dB      6:22 03-A Fine Mess
DR12      -1.05 dB   -17.44 dB     11:55 04-This May Get Ugly
DR10      -1.06 dB   -13.71 dB      9:41 05-The Soul Goodbye
DR11      -0.97 dB   -13.74 dB      5:50 06-That Was Then
DR13      -0.82 dB   -17.72 dB      9:22 07-The New Normal
--------------------------------------------------------------------------------

Number of tracks:  7
Official DR value: DR11

Samplerate:        96000 Hz
Channels:          2
Bits per sample:   24
Bitrate:           2488 kbps
Codec:             FLAC
================================================================================
Приватный:
Нет (DHT включён)
Размер:
1.06 Гб (1,140,606,099 байт) » файлов: 9
Участники:
1 раздают, 0 качают (1 участников всего)
Внешние участники:
--- [ Обновить ]
No seeders - write personal message to M0p94ok. Any questions - support@pro-jazz.com.
Нет сидеров - пишите в личку M0p94ok. Есть вопросы - support@pro-jazz.com
13:44
158
Нет комментариев. Ваш будет первым!