Поиск

2019 Luca Sisera Roofer - Starlex Complex {Nwog nwog 023} [24-44,1]

2019 Luca Sisera Roofer - Starlex Complex {Nwog nwog 023} [24-44,1]
Дата издания диска:
5 апреля 2019
Носитель:
WEB
Формат:
PCM
Тип рипа:
tracks+.cue
Контейнер:
APE (*.ape)
Количество каналов:
2.0
Разрядность/ЧД:
24/44,1
Битрейт аудио:
lossless
Время звучания:
00:47:25
Наличие сканов:
web
Наличие водяных знаков:
нет
Страна-производитель диска (релиза):
Switzerland
Релизёр (источник):
M0p94ok

Треклист:

1. Starlex Complex  05:56
2. Internal Body Messenger  05:55
3. Struggle Bubble  04:18
4. Nairs  06:56
5. Mama Helix  07:26
6. Missing Chan(n)els, Pt. I  03:20
7. Missing Chan(n)els, Pt. II  07:28
8. Missing Chan(n)els, Pt. III  03:23
9. Starlex Extro  02:43

Доп. инфо:

Джазовый квинтет ROOFER, основанный швейцарским контрабасистом и композитором Лукой Сисера, с беззаботной легкостью балансирует между авангардом и пониманием традиций. Группа убедительно продемонстрировала это в своих альбомах «Prospect» (2015, Leo Records) и «Moscow Files» (2017, Leo Records), которые получили высокую оценку международной специализированной прессы. После многочисленных туров, фестивалей и концертов, ROOFER зарекомендовал себя как смелый и игривый джазовый коллектив, который стремится к экспериментам.

С новым аудио-релизом, который выйдет весной 2019 года на немецком лейбле nWog Records, группа собирается начать новую главу. Множество концертов привело к тому, что язык группы снова значительно улучшился, в то время как звуковой космос коллектива удивительно расширился. Именно здесь и поднимается тема нового альбома. Как всегда, замысловатые ритмы, быстрые партии в унисон, скрытые свинговые фантазии и гимновые звуковые ландшафты служат этим пяти известным джазовым музыкантам в качестве импровизационного плато для игры. Это порождает сложную и новаторскую музыку, которая столь же свободна, как и осознает форму, и остается в равной степени сложной для музыкантов и публики. Таким образом, неудивительно, что альпинисты-экстремалы, которые также называют себя «кровельщиками», те, кто карабкается по самым высоким зданиям в мире без страховочных веревок, но со сложной техникой, ноу-хау, опытом и безмерной любовью к приключениям, действуют как метафорические образцы для подражания для этой группы.

Лог проверки качества
foobar2000 1.3.16 / Dynamic Range Meter 1.1.1
log date: 2019-04-05 02:02:18

--------------------------------------------------------------------------------
Analyzed: Luca Sisera Roofer / Starlex Complex
--------------------------------------------------------------------------------

DR         Peak         RMS     Duration Track
--------------------------------------------------------------------------------
DR9        0.00 dB   -10.62 dB      5:57 01-Starlex Complex
DR9        0.00 dB   -11.17 dB      5:56 02-Internal Body Messenger
DR9        0.00 dB   -10.04 dB      4:19 03-Struggle Bubble
DR9        0.00 dB   -14.15 dB      6:57 04-Nairs
DR10       0.00 dB   -11.28 dB      7:27 05-Mama Helix
DR7        0.00 dB   -10.44 dB      3:20 06-Missing Chan(n)els, Pt. I
DR8        0.00 dB    -9.55 dB      7:29 07-Missing Chan(n)els, Pt. II
DR7        0.00 dB    -8.73 dB      3:23 08-Missing Chan(n)els, Pt. III
DR8        0.00 dB   -11.79 dB      2:44 09-Starlex Extro
--------------------------------------------------------------------------------

Number of tracks:  9
Official DR value: DR8

Samplerate:        44100 Hz
Channels:          2
Bits per sample:   24
Bitrate:           1476 kbps
Codec:             FLAC
================================================================================
Приватный:
Нет (DHT включён)
Размер:
538.67 Мб (564,832,802 байт) » файлов: 11
Участники:
3 раздают, 0 качают (3 участников всего)
Внешние участники:
--- [ Обновить ]
No seeders - write personal message to M0p94ok. Any questions - support@pro-jazz.com.
Нет сидеров - пишите в личку M0p94ok. Есть вопросы - support@pro-jazz.com
14:31
150
Нет комментариев. Ваш будет первым!