Поиск

2013 Edgar Knecht - Dance On Deep Waters {Ozella Music OZ047} [24-96]

2013 Edgar Knecht - Dance On Deep Waters {Ozella Music OZ047} [24-96]
Дата издания диска:
28 июня 2013
Издатель (лейбл):
Номер по каталогу:
OZ047
Носитель:
WEB
Формат:
PCM
Тип рипа:
tracks+.cue
Контейнер:
APE (*.ape)
Количество каналов:
2.0
Разрядность/ЧД:
24/96
Битрейт аудио:
lossless
Время звучания:
00:52:44
Наличие сканов:
web
Наличие водяных знаков:
нет
Страна-производитель диска (релиза):
USA
Релизёр (источник):
M0p94ok

Треклист:

01. Liofee [06:03]
02. Gedankenfreiheit (Freedom of Thought) [10:21]
03. Tiefe Wasser (Deep Waters) [05:20]
04. Nachttraum (Dream At Night) [07:40]
05. Fenjas Lullaby [04:42]
06. Schwesterlein (Little Sister) [08:56]
07. Fruhling (Spring) [03:33]
08. Wiegenlied (Cradle Song) [06:13]

Лог проверки качества
foobar2000 1.6.2 / Dynamic Range Meter 1.1.1
log date: 2021-01-06 17:40:11

--------------------------------------------------------------------------------
Analyzed: Edgar Knecht / Dance On Deep Waters
--------------------------------------------------------------------------------

DR         Peak         RMS     Duration Track
--------------------------------------------------------------------------------
DR9       -0.50 dB   -12.52 dB      6:01 01-Lilofee
DR8       -0.50 dB   -10.75 dB     10:19 02-Gedankenfreiheit
DR11      -0.50 dB   -14.11 dB      5:19 03-Tiefe Wasser
DR8       -0.50 dB   -11.99 dB      7:37 04-Nachttraum
DR12      -0.50 dB   -17.42 dB      4:38 05-Fenjas Lullaby
DR10      -0.50 dB   -13.96 dB      8:55 06-Schwesterlein
DR11      -0.50 dB   -13.78 dB      3:32 07-Frühling
DR13      -0.58 dB   -18.23 dB      6:12 08-Wiegenlied
--------------------------------------------------------------------------------

Number of tracks:  8
Official DR value: DR10

Samplerate:        96000 Hz
Channels:          2
Bits per sample:   24
Bitrate:           2654 kbps
Codec:             FLAC
================================================================================
Приватный:
Нет (DHT включён)
Размер:
1.04 Гб (1,113,109,190 байт) » файлов: 10
Участники:
3 раздают, 1 качают (4 участников всего)
Внешние участники:
--- [ Обновить ]
Скорость:
199.96 Кб/c 0/c
No seeders - write personal message to M0p94ok. Нет сидеров - пишите в личку M0p94ok.
18:50
150
Нет комментариев. Ваш будет первым!