Поиск

2019 Guillaume de Chassy - Pour Barbara {NoMadMusic} [24-44,1]

2019 Guillaume de Chassy - Pour Barbara {NoMadMusic} [24-44,1]
Дата издания диска:
5 апреля 2019
Носитель:
WEB
Формат:
PCM
Тип рипа:
tracks+.cue
Контейнер:
APE (*.ape)
Количество каналов:
2.0
Разрядность/ЧД:
24/44,1
Битрейт аудио:
lossless
Время звучания:
00:43:57
Наличие сканов:
web
Наличие водяных знаков:
нет
Страна-производитель диска (релиза):
USA
Релизёр (источник):
M0p94ok

Треклист:

01. Ma plus belle histoire d'amour  04:53
02. Les rapaces / L'aigle noir  05:40
03. Pour Barbara (avant la nuit)  01:57
04. Nantes  04:37
05. Göttingen  04:15
06. Pour Barbara (vers l'aube)  03:22
07. Une petite cantate  04:19
08. Dis ! quand reviendras-tu ?  04:57
09. Pour Barbara (en son jardin)  04:25
10. Quel joli temps  05:32

Лог проверки качества
foobar2000 1.6.2 / Dynamic Range Meter 1.1.1
log date: 2021-01-06 20:18:19

--------------------------------------------------------------------------------
Analyzed: Guillaume de Chassy / Pour Barbara
--------------------------------------------------------------------------------

DR         Peak         RMS     Duration Track
--------------------------------------------------------------------------------
DR15      -5.45 dB   -27.68 dB      4:53 01-Ma plus belle histoire d'amour
DR13      -0.28 dB   -19.07 dB      5:40 02-Les rapaces / L'aigle noir
DR13      -9.05 dB   -30.66 dB      1:57 03-Pour Barbara (avant la nuit)
DR13      -4.11 dB   -25.12 dB      4:37 04-Nantes
DR14      -5.40 dB   -24.66 dB      4:15 05-Göttingen
DR14     -12.24 dB   -30.45 dB      3:22 06-Pour Barbara (vers l'aube)
DR14      -0.41 dB   -21.46 dB      4:19 07-Une petite cantate
DR15      -0.27 dB   -23.70 dB      4:58 08-Dis ! quand reviendras-tu ?
DR12      -5.51 dB   -24.00 dB      4:26 09-Pour Barbara (en son jardin)
DR15      -0.26 dB   -22.61 dB      5:32 10-Quel joli temps
--------------------------------------------------------------------------------

Number of tracks:  10
Official DR value: DR14

Samplerate:        44100 Hz
Channels:          2
Bits per sample:   24
Bitrate:           1029 kbps
Codec:             FLAC
================================================================================
Приватный:
Нет (DHT включён)
Размер:
331.77 Мб (347,884,830 байт) » файлов: 12
Участники:
1 раздают, 0 качают (1 участников всего)
Внешние участники:
--- [ Обновить ]
No seeders - write personal message to M0p94ok. Нет сидеров - пишите в личку M0p94ok.
21:41
220
Нет комментариев. Ваш будет первым!