Вы используете незарегистрированную версию компонента "Вкладки"!

Поиск

1972 Dexter Gordon - Fried Bananas (2016) {Gearbox GB1535} [24-96]

1972 Dexter Gordon - Fried Bananas (2016) {Gearbox GB1535} [24-96]
Стили:
Место записи:
Heemskerk Societiet Progress, Holland
Дата переиздания диска:
4 ноября 2016
Битрейт аудио:
lossless
Доп. инфо:

Формат записи/Источник записи: [TR24][OF]
Издание: Remastered
Год издания/переиздания диска: 1972/2016
Издатель (лейбл): Gearbox Records
Продолжительность: 00:36:08
Наличие сканов в содержимом раздачи: Нет

Контейнер: FLAC (*.flac)
Тип рипа: tracks
Разрядность: 24/96
Количество каналов: 2.0

Источник (релизер): PROSTUDIOMASTERS

Лог проверки качества
foobar2000 1.4.3 / Dynamic Range Meter 1.1.1
log date: 2020-11-11 18:33:54

--------------------------------------------------------------------------------
Analyzed: Dexter Gordon / Fried Bananas
--------------------------------------------------------------------------------

DR         Peak         RMS     Duration Track
--------------------------------------------------------------------------------
DR15      -4.41 dB   -21.82 dB     14:21 01-Fried Bananas
DR14      -4.41 dB   -20.69 dB     14:24 02-The Panther
DR15      -4.41 dB   -22.35 dB      7:24 03-Body and Soul
--------------------------------------------------------------------------------

Number of tracks:  3
Official DR value: DR15

Samplerate:        96000 Hz
Channels:          2
Bits per sample:   24
Bitrate:           2795 kbps
Codec:             FLAC
================================================================================
Any questions - support@pro-jazz.com. Есть вопросы - support@pro-jazz.com
22:27
198
Нет комментариев. Ваш будет первым!