Поиск

2013 Gerald Clayton - Life Forum {Concord CJA-33770-02} [24-88,2]

2013 Gerald Clayton - Life Forum {Concord CJA-33770-02} [24-88,2]
Дата записи диска:
1 октября - 3 октября 2012
Место записи:
Sear Sound, New York City, NY, USA
Дата издания диска:
2 апреля 2013
Издатель (лейбл):
Номер по каталогу:
CJA-33770-02
Носитель:
WEB
Формат:
PCM
Тип рипа:
tracks+.cue
Контейнер:
APE (*.ape)
Количество каналов:
2.0
Разрядность/ЧД:
24/88,2
Битрейт аудио:
lossless
Время звучания:
00:59:48
Наличие сканов:
да
Наличие водяных знаков:
нет
Страна-производитель диска (релиза):
USA
Релизёр (источник):
M0p94ok

Треклист:

01. A Life Forum  02:52
02. Future Reflection  04:52
03. Shadamanthem  06:37
04. Sir Third  04:18
05. Deep Dry Ocean  05:27
06. Dusk Baby  05:39
07. Mao Nas Massa  04:47
08. Prelude  00:59
09. Some Always  05:37
10. Like Water  05:16
11. Unhidden  03:57
12. When An Angel Sheds A Feather / UMMG  09:28

Лог проверки качества
foobar2000 1.6.2 / Dynamic Range Meter 1.1.1
log date: 2021-01-07 15:19:33

--------------------------------------------------------------------------------
Analyzed: Gerald Clayton / Life Forum
--------------------------------------------------------------------------------

DR         Peak         RMS     Duration Track
--------------------------------------------------------------------------------
DR12      -0.10 dB   -14.53 dB      2:53 01-A Life Forum
DR9       -0.10 dB   -11.28 dB      4:52 02-Future Reflection
DR9       -0.02 dB   -11.32 dB      6:38 03-Shadamanthem
DR12      -0.10 dB   -14.39 dB      4:18 04-Sir Third
DR12      -0.10 dB   -15.16 dB      5:27 05-Deep Dry Ocean
DR12      -0.10 dB   -16.24 dB      5:39 06-Dusk Baby
DR13      -0.10 dB   -15.25 dB      4:47 07-Mao Nas Massa
DR12      -1.49 dB   -17.86 dB      1:00 08-Prelude
DR9       -0.10 dB   -11.03 dB      5:38 09-Some Always
DR10      -0.02 dB   -13.42 dB      5:16 10-Like Water
DR10      -0.02 dB   -12.09 dB      3:57 11-Unhidden
DR11      -0.10 dB   -15.43 dB      5:32 12-When An Angel Sheds A Feather
DR10      -0.10 dB   -12.10 dB      3:56 13-Under Madhatter Medicinal Groupon (UMMG)
--------------------------------------------------------------------------------

Number of tracks:  13
Official DR value: DR11

Samplerate:        88200 Hz
Channels:          2
Bits per sample:   24
Bitrate:           2224 kbps
Codec:             FLAC
================================================================================
Приватный:
Нет (DHT включён)
Размер:
1.03 Гб (1,109,698,479 байт) » файлов: 16
Участники:
4 раздают, 0 качают (4 участников всего)
Внешние участники:
--- [ Обновить ]
No seeders - write personal message to M0p94ok. Any questions - support@pro-jazz.com.
Нет сидеров - пишите в личку M0p94ok. Есть вопросы - support@pro-jazz.com
16:35
142
Нет комментариев. Ваш будет первым!