Поиск

2020 Joost Lijbaart – Free {Challenge} [24-96]

2020 Joost Lijbaart – Free {Challenge} [24-96]
Издатель (лейбл):
Битрейт аудио:
lossless

Треклист:

01. Strangers from the Sky  06:26
02. Velocity  03:45
03. Corona Spiritual  03:58
04. Half Moon  05:11
05. Twinkling Night  01:37
06. Dreamtime  05:22
07. Manhood  04:21
08. Talking Trees  01:35
09. Niaga  01:51
10. Saman  03:48
11. Interstellar  03:16
12. Solitude  01:25
13. Free  05:17

Доп. инфо:

Формат записи/Источник записи: [TR24][OF]
Наличие водяных знаков: Нет
Год издания: 2020
Продолжительность: 00:47:58
Наличие сканов в содержимом раздачи: Только обложка
Источник (релизер): qobuz
Контейнер: FLAC (*.flac)
Тип рипа: tracks
Разрядность: 24/96
Формат: PCM
Количество каналов: 2.0

Лог проверки качества
foobar2000 1.6.2 / Dynamic Range Meter 1.1.1
log date: 2020-11-15 08:02:04

––––––––––––––––––––––––––––––––––––––––
Analyzed: Joost Lijbaart / Free
––––––––––––––––––––––––––––––––––––––––

DR Peak RMS Duration Track
––––––––––––––––––––––––––––––––––––––––
DR13 -1.10 dB -18.91 dB 6:27 01-Strangers from the Sky
DR13 -1.10 dB -17.88 dB 3:45 02-Velocity
DR15 -1.11 dB -19.75 dB 3:59 03-Corona Spiritual
DR13 -1.10 dB -18.15 dB 5:12 04-Half Moon
DR15 -13.13 dB -33.16 dB 1:38 05-Twinkling Night
DR13 -1.10 dB -17.97 dB 5:22 06-Dreamtime
DR15 -1.10 dB -19.62 dB 4:21 07-Manhood
DR17 -10.77 dB -32.72 dB 1:35 08-Talking Trees
DR9 -1.10 dB -13.01 dB 1:52 09-Niaga
DR14 -6.19 dB -26.42 dB 3:49 10-Saman
DR12 -1.10 dB -17.65 dB 3:16 11-Interstellar
DR11 -1.10 dB -17.61 dB 1:26 12-Solitude
DR12 -6.27 dB -22.89 dB 5:17 13-Free
––––––––––––––––––––––––––––––––––––––––

Number of tracks: 13
Official DR value: DR13

Samplerate: 96000 Hz
Channels: 2
Bits per sample: 24
Bitrate: 2782 kbps
Codec: FLAC
================================================================================
Приватный:
Да (DHT отключён)
Размер:
894.87 Мб (938,338,717 байт) » файлов: 14
Участники:
2 раздают, 0 качают (2 участников всего)
Внешние участники:
5 раздают, 1 качают (6 участников всего) [ Обновить ]
No seeders - write personal message to M0p94ok. Нет сидеров - пишите в личку M0p94ok.
16:55
189
Нет комментариев. Ваш будет первым!