Поиск

2019 Ikarus - Mosaismic {Ronin Rhythm RON022} [24-88,2]

2019 Ikarus - Mosaismic {Ronin Rhythm RON022} [24-88,2]
Дата записи диска:
1 ноября - 30 ноября 2018
Место записи:
Fattoria Musica studio, Osnabrück, Germany
Дата издания диска:
5 апреля 2019
Номер по каталогу:
RON022
Носитель:
WEB
Формат:
PCM
Тип рипа:
tracks+.cue
Контейнер:
APE (*.ape)
Количество каналов:
2.0
Разрядность/ЧД:
24/88,2
Битрейт аудио:
lossless
Время звучания:
00:49:20
Наличие сканов:
web
Страна-производитель диска (релиза):
Switzerland
Релизёр (источник):
M0p94ok
Доп. инфо:

IKARUS - современный / грув / джазовый квинтет, состоящий из Рамона Оливераса (композиция, ударные), Анны Хирш (вокал), Андреаса Ларейды (вокал), Лукки Фрис (фортепиано) и Мо Мейера (прямой бас). Их уникальное звучание основано на постоянно меняющихся полиритмах, колеблющихся грувах, органических импровизациях и очаровательной смеси мужского и женского вокала. Композиции продолжают развиваться благодаря характеру их живых выступлений и, как правило, снова появляются в новых версиях на их полноформатных записях. Они ссылаются на такие обширные влияния, как Мортон Фельдман, Мешугга, Нож, Крейг Таборн, Стив Райх и традиционные западноафриканские ритмы. На сегодняшний день IKARUS выпустили в общей сложности три пластинки (включая MOSAISMIC) на бутик-лейбле Ника Берча Ronin Rhythm Records, а также много гастролировали по Европе и Японии.

Лог проверки качества
foobar2000 1.6.2 / Dynamic Range Meter 1.1.1
log date: 2021-01-07 16:37:20

--------------------------------------------------------------------------------
Analyzed: Ikarus / Mosaismic
--------------------------------------------------------------------------------

DR         Peak         RMS     Duration Track
--------------------------------------------------------------------------------
DR8       -0.31 dB   -10.85 dB      7:41 01-Meridian
DR7       -0.31 dB   -10.62 dB      5:47 02-Oumuamua
DR11      -0.31 dB   -15.31 dB      8:04 03-Saiko
DR8       -0.31 dB   -12.24 dB      5:23 04-Aligulin
DR13      -0.31 dB   -16.68 dB      5:16 05-Ikenophobia
DR9       -0.31 dB   -13.18 dB      5:58 06-Subzero
DR11      -0.31 dB   -13.36 dB      3:09 07-Mondrian
DR10      -3.48 dB   -20.08 dB      2:20 08-Iridium
DR9       -0.31 dB   -12.29 dB      5:45 09-Cirrus
--------------------------------------------------------------------------------

Number of tracks:  9
Official DR value: DR9

Samplerate:        88200 Hz
Channels:          2
Bits per sample:   24
Bitrate:           2477 kbps
Codec:             FLAC
================================================================================
No seeders - write personal message to M0p94ok. Any questions - support@pro-jazz.com.
Нет сидеров - пишите в личку M0p94ok. Есть вопросы - support@pro-jazz.com
17:46
173
Нет комментариев. Ваш будет первым!